V.A. - The Osbourne Family Album (Japanese SICP-19(2002) *APE*

Formatos Lossless // File formats (FLAC, WAV, MLP, APE, TTA, ALS, etc.)

Moderador: Moderador

Responder
rat24

V.A. - The Osbourne Family Album (Japanese SICP-19(2002) *APE*

Mensagem por rat24 » 07 out 2010, 21:49

Imagem

Name of a artist : VA
Release date : 2002
Bit rate : Eac/ape
Genre : Rock


[spoiler]
The Osbourne Family Album was a various artists compilation album based on the television series The Osbournes with the songs selected by the family. It included the theme song "Crazy Train" (Pat Boone's version) as well as contributions by Ozzy and Kelly. The songs were interspersed with dialogue (uncensored) from the show. Released on June 12, 2002, it was dedicated to family member Aimee[1] who chose not to participate in the television show. The album was released during the second season of the series.[2]
[/spoiler]

Track list :
01. Dialogue 1
02. Pat Boone - Crazy Train
03. Dialogue 2
04. Ozzy Osbourne - Dreamer
05. Dialogue 3
06. Kelly Osbourne - Papa Don't Preach
07. Dialogue 4
08. The Kinks - You Really Got Me
09. Dialogue 5
10. System of a Down - Snowblind
11. Dialogue 6
12. John Lennon - Imagine
13. Dialogue 7
14. The Cars- Drive
15. Dialogue 8
16. Starsailor - Good Souls (Live)
17. Dialogue 9
18. Dillusion - Mirror Image
19. Dialogue 10
20. Eric Clapton - Wonderful Tonight
21. Dialogue 11
22. Ozzy Osbourne - Mama, I'm Coming Home
23. Dialogue 12
24. Ozzy Osbourne - Crazy Train
25. Dialogue 13
26. Chevelle - Family System (Japanese bonus track)
27. Dialogue 14


[spoiler]Exact Audio Copy V0.99 prebeta 5 from 4. May 2009

EAC extraction logfile from 11. September 2010, 12:08

Various / The Osbourne Family Album (Japanese SICP-194)

Used drive : Optiarc DVD RW AD-7191A Adapter: 1 ID: 0

Read mode : Secure
Utilize accurate stream : Yes
Defeat audio cache : Yes
Make use of C2 pointers : No

Read offset correction : 6
Overread into Lead-In and Lead-Out : No
Fill up missing offset samples with silence : Yes
Delete leading and trailing silent blocks : No
Null samples used in CRC calculations : Yes
Used interface : Native Win32 interface for Win NT & 2000

Used output format : Internal WAV Routines
Sample format : 44.100 Hz; 16 Bit; Stereo

TOC of the extracted CD

Track | Start | Length | Start sector | End sector
---------------------------------------------------------
1 | 0:00.00 | 0:19.05 | 0 | 1429
2 | 0:19.05 | 4:30.50 | 1430 | 21729
3 | 4:49.55 | 0:05.45 | 21730 | 22149
4 | 4:55.25 | 4:47.22 | 22150 | 43696
5 | 9:42.47 | 0:09.17 | 43697 | 44388
6 | 9:51.64 | 3:25.38 | 44389 | 59801
7 | 13:17.27 | 0:16.58 | 59802 | 61059
8 | 13:34.10 | 2:13.45 | 61060 | 71079
9 | 15:47.55 | 0:12.00 | 71080 | 71979
10 | 15:59.55 | 4:40.62 | 71980 | 93041
11 | 20:40.42 | 0:04.38 | 93042 | 93379
12 | 20:45.05 | 3:03.65 | 93380 | 107169
13 | 23:48.70 | 0:09.20 | 107170 | 107864
14 | 23:58.15 | 3:55.45 | 107865 | 125534
15 | 27:53.60 | 0:14.32 | 125535 | 126616
16 | 28:08.17 | 5:26.30 | 126617 | 151096
17 | 33:34.47 | 0:32.58 | 151097 | 153554
18 | 34:07.30 | 4:34.55 | 153555 | 174159
19 | 38:42.10 | 0:29.72 | 174160 | 176406
20 | 39:12.07 | 3:41.10 | 176407 | 192991
21 | 42:53.17 | 0:04.13 | 192992 | 193304
22 | 42:57.30 | 4:13.25 | 193305 | 212304
23 | 47:10.55 | 0:16.00 | 212305 | 213504
24 | 47:26.55 | 4:50.05 | 213505 | 235259
25 | 52:16.60 | 0:19.45 | 235260 | 236729
26 | 52:36.30 | 4:18.10 | 236730 | 256089
27 | 56:54.40 | 0:06.00 | 256090 | 256539

Range status and errors

Selected range

Filename F:\-= lossless work =-\Various - The Osbourne Family Album (Japanese SICP-194).wav

Peak level 99.8 %
Range quality 100.0 %
Test CRC C5723BDA
Copy CRC C5723BDA
Copy OK

No errors occurred

AccurateRip summary

Track 1 not present in database
Track 2 not present in database
Track 3 not present in database
Track 4 not present in database
Track 5 not present in database
Track 6 not present in database
Track 7 not present in database
Track 8 not present in database
Track 9 not present in database
Track 10 not present in database
Track 11 not present in database
Track 12 not present in database
Track 13 not present in database
Track 14 not present in database
Track 15 not present in database
Track 16 not present in database
Track 17 not present in database
Track 18 not present in database
Track 19 not present in database
Track 20 not present in database
Track 21 not present in database
Track 22 not present in database
Track 23 not present in database
Track 24 not present in database
Track 25 not present in database
Track 26 not present in database
Track 27 not present in database

None of the tracks are present in the AccurateRip database

End of status report[/spoiler]
ed2k: VA-2002-The Osbourne Family Album.Japan.eac.by.awaxhome.lossless-muz.ucoz.com.rar  [387.09 Mb]

Responder

Voltar para “Álbuns Lossless // Lossless Complete Albums”