Robert Plant - Band Of Joy (2010) [ape]

Formatos Lossless // File formats (FLAC, WAV, MLP, APE, TTA, ALS, etc.)

Moderador: Moderador

Responder
rat24

Robert Plant - Band Of Joy (2010) [ape]

Mensagem por rat24 » 25 set 2010, 08:57

Imagem

Artist: Robert Plant
Album:Band Of Joy
Quality: EAC_APE
Genre: Rock
Year: 2010


[spoiler]
For his new record and tour, Plant has rounded up an ace group of roots musicians and session players: Patty Griffin on vocals, multi-instrumentalist Darrell Scott, guitarist and co-producer Buddy Miller, drummer Marco Giovino and bassist Byron House. “It’s been a blast working on these new songs… and I’m enjoying such creativity and vitality,” Plant said in a statement. “It’s been a remarkable change of direction for all of us and as a group we all seem to have developed a new groove.”

The upcoming release will be Plant’s first LP since 2007’s Raising Sand, his multiplatinum, Grammy-winning collaboration with Alison Krauss. With Krauss busy working on recording and touring with her own band Union Station, Plant doesn’t plan to tour or record with her this year, although he does promise there will be an eventual follow-up to Raising Sand. “Alison and I get together quite often… and sometimes we dance,” Plant added.
[/spoiler]

01. Angel Dance [0:03:49.37]
02. House Of Cards [0:03:13.52]
03. Central Two-O-Nine [0:02:49.00]
04. Silver Rider [0:06:05.58]
05. You Can't Buy My Love [0:03:10.68]
06. Falling In Love Again [0:03:37.47]
07. The Only Sound That Matters [0:03:44.65]
08. Monkey [0:04:57.58]
09. Get Along Home Cindy [0:03:36.62]
10. Harms Swift Way [0:04:18.64]
11. Satan Your Kingdom Must Come Down [0:04:12.24]
12. Even This Shall Pass Away [0:04:02.55]

[spoiler]

Código: Selecionar todos

Exact Audio Copy V0.99 prebeta 4 from 23. January 2008

EAC extraction logfile from 22. August 2010, 12:38

Robert Plant / Band Of Joy 

Used drive  : TSSTcorpCD/DVDW SH-W162L   Adapter: 3  ID: 1

Read mode               : Secure
Utilize accurate stream : Yes
Defeat audio cache      : Yes
Make use of C2 pointers : No

Read offset correction                      : 6
Overread into Lead-In and Lead-Out          : No
Fill up missing offset samples with silence : Yes
Delete leading and trailing silent blocks   : No
Null samples used in CRC calculations       : Yes
Used interface                    : Installed external ASPI interface

Used output format : Internal WAV Routines
Sample format      : 44.100 Hz; 16 Bit; Stereo

TOC of the extracted CD

      Track |   Start  |  Length  | Start sector | End sector 
     ---------------------------------------------------------
         1  |  0:00.00 |  3:49.37 |         0    |    17211   
         2  |  3:49.37 |  3:13.52 |     17212    |    31738   
         3  |  7:03.14 |  2:49.00 |     31739    |    44413   
         4  |  9:52.14 |  6:05.58 |     44414    |    71846   
         5  | 15:57.72 |  3:10.68 |     71847    |    86164   
         6  | 19:08.65 |  3:37.47 |     86165    |   102486   
         7  | 22:46.37 |  3:44.65 |    102487    |   119351   
         8  | 26:31.27 |  4:57.58 |    119352    |   141684   
         9  | 31:29.10 |  3:36.62 |    141685    |   157946   
        10  | 35:05.72 |  4:18.64 |    157947    |   177360   
        11  | 39:24.61 |  4:12.24 |    177361    |   196284   
        12  | 43:37.10 |  4:02.55 |    196285    |   214489   

Range status and errors

Selected range

      Filename C:\Documents and Settings\Мои документы\Robert Plant - Band Of Joy .eac.covers.by.rat.lossless-muz.ucoz.com\Robert Plant - Band Of Joy .eac.covers.by.rat.lossless-muz.ucoz.wav

      Peak level 98.7 %
      Range quality 100.0 %
      Copy CRC 00D8AB55
      Copy OK

No errors occurred

End of status report
[/spoiler]

ed2k: Robert.Plant.-.Band.Of.Joy.eac.covers.by.rat.lossless-muz.ucoz.com.rar  [319.94 Mb]

Responder

Voltar para “Álbuns Lossless // Lossless Complete Albums”