The Beatles - New Year's Day (1962) [ape]

Formatos Lossless // File formats (FLAC, WAV, MLP, APE, TTA, ALS, etc.)

Moderador: Moderador

Responder
rat24

The Beatles - New Year's Day (1962) [ape]

Mensagem por rat24 » 23 set 2010, 14:58

Imagem


Reference :CDC 010162
Date :1962
Made In :USA
Quality :eac-ape


[spoiler]
So much has been said and written about the Beatles -- and their story is so mythic in its sweep -- that it's difficult to summarize their career without restating clichés that have already been digested by tens of millions of rock fans. To start with the obvious, they were the greatest and most influential act of the rock era, and introduced more innovations into popular music than any other rock band of the 20th century. Moreover, they were among the few artists of any discipline that were simultaneously the best at what they did and the most popular at what they did. Relentlessly imaginative and experimental, the Beatles grabbed a hold of the international mass consciousness in 1964 and never let go for the next six years, always staying ahead of the pack in terms of ...
[/spoiler]

Pete Best (drums)
George Harrison (guitar, vocals)
John Lennon (guitar, vocals)
Paul McCartney (bass, vocals)


01.Like Dreamers Do (McCartney/Lennon) 2.39
02. Money (That's What I Want) (Gordy/Bradford) 2.27
03.Till There Was You (Wilson) 3.03
04. The Sheik Of Araby (Smith/Synder/Wheeler) 1.45
05. To Know Her Is To Love Her (Spector) 2.40
06. Take Good Care Of My Baby (Goffin/King) 2.31
07. Memphis, Tennessee (Berry) 2.24
08. Sure To Fall (In Love With You) (Perkins/Claunch/Cantrell) 2.06
09. Hello Little Girl (Lennon/McCartney) 1.43
10. Three Cool Cats (Leiber/Stoller) 2.28
11. Crying, Waiting, Hoping (Holly) 2.06
12. Love Of The Loved (Lennon/McCartney) 1.55
13. September In The Rain (Warren) 1.59
14. Besame Mucho (Velazques/Skylar) 2.43
15. Searchin' (Leiber/Stoller) 3.06

[spoiler]

Código: Selecionar todos

Exact Audio Copy V0.99 prebeta 4 from 23. January 2008

EAC extraction logfile from 21. August 2010, 17:00

The Beatles / New Year's Day

Used drive  : Optiarc DVD RW AD-7170A   Adapter: 3  ID: 0

Read mode               : Secure
Utilize accurate stream : Yes
Defeat audio cache      : Yes
Make use of C2 pointers : No

Read offset correction                      : 48
Overread into Lead-In and Lead-Out          : No
Fill up missing offset samples with silence : Yes
Delete leading and trailing silent blocks   : No
Null samples used in CRC calculations       : Yes
Used interface                              : Installed external ASPI interface

Used output format : Internal WAV Routines
Sample format      : 44.100 Hz; 16 Bit; Stereo


TOC of the extracted CD

     Track |   Start  |  Length  | Start sector | End sector
    ---------------------------------------------------------
        1  |  0:00.00 |  2:39.61 |         0    |    11985   
        2  |  2:39.61 |  2:27.51 |     11986    |    23061   
        3  |  5:07.37 |  3:03.43 |     23062    |    36829   
        4  |  8:11.05 |  1:45.60 |     36830    |    44764   
        5  |  9:56.65 |  2:39.71 |     44765    |    56760   
        6  | 12:36.61 |  2:31.54 |     56761    |    68139   
        7  | 15:08.40 |  2:24.69 |     68140    |    79008   
        8  | 17:33.34 |  2:06.46 |     79009    |    88504   
        9  | 19:40.05 |  1:43.52 |     88505    |    96281   
       10  | 21:23.57 |  2:28.37 |     96282    |   107418   
       11  | 23:52.19 |  2:06.52 |    107419    |   116920   
       12  | 25:58.71 |  1:55.56 |    116921    |   125601   
       13  | 27:54.52 |  1:59.01 |    125602    |   134527   
       14  | 29:53.53 |  2:43.54 |    134528    |   146806   
       15  | 32:37.32 |  3:06.37 |    146807    |   160793   


Range status and errors

Selected range

     Filename C:\Documents and Settings\Мои документы\The Beatles - New Year's Day.eac.covers.by.rat.lossless-muz.ucoz.com\The Beatles - New Year's Day.eac.covers.by.rat.lossless-muz.ucoz.wav

     Peak level 100.0 %
     Range quality 100.0 %
     Copy CRC 72A07C6F
     Copy OK

No errors occurred

End of status report
[/spoiler]

ed2k: The.Beatles.-.New.Years.Day.eac.covers.by.rat.lossless-muz.ucoz.com.rar  [111.44 Mb]

Responder

Voltar para “Álbuns Lossless // Lossless Complete Albums”