Spliff - Alles Gute (1993)

Formatos Lossless // File formats (FLAC, WAV, MLP, APE, TTA, ALS, etc.)

Moderador: Moderador

Responder
rat24

Spliff - Alles Gute (1993)

Mensagem por rat24 » 21 set 2010, 21:21

Imagem

# Audio CD (1993)
# Original Release Date: 1993
# Genre: New wave/ska
# Format: Eac Ape
# Label: Sony

[spoiler]
Spliff was a Neue Deutsche Welle (New German Wave) rock band, active in the 1980s. The members were already playing together before they were 'adopted' by Nina Hagen when she came to West Germany in 1977. They recorded two albums with her as the Nina Hagen Band before continuing under the name Spliff when Hagen went solo.

Many of the musicians subsequently formed a band called Froon.[1] The Other Ones was another offshoot band, which included Alf Klimek, who had appeared on the Spliff Radio Show as Alf Klimax.
[/spoiler]


01. Wellensalat [0:02:21.18]
02. Herzlichen Gluckwunsch [0:00:11.72]
03. Carbonara [0:04:37.68]
04. Das Blech [0:03:57.07]
05. Dejа Vu [0:03:38.00]
06. Radio [0:04:04.60]
07. Duett Komplett (Remix) [0:04:22.55]
08. Labyrinth [0:03:07.70]
09. Notausgang [0:04:19.15]
10. Herr Kennedy [0:02:50.18]
11. Computer Sind Doof [0:02:58.05]
12. Heut' Nacht [0:02:58.47]
13. Glaspalast [0:04:21.13]
14. Kill [0:05:50.15]
15. Jerusalem [0:04:08.65]
16. Telefon Terror [0:04:07.70]
17. Rand Der Welt [0:03:41.20]
18. Muller (Live) [0:08:23.62]


[spoiler]

Código: Selecionar todos

Exact Audio Copy V0.99 prebeta 4 from 23. January 2008

EAC extraction logfile from 20. August 2010, 19:57

Spliff  / Alles Gute

Used drive  : Optiarc DVD RW AD-7170A   Adapter: 3  ID: 0

Read mode               : Secure
Utilize accurate stream : Yes
Defeat audio cache      : Yes
Make use of C2 pointers : No

Read offset correction                      : 48
Overread into Lead-In and Lead-Out          : No
Fill up missing offset samples with silence : Yes
Delete leading and trailing silent blocks   : No
Null samples used in CRC calculations       : Yes
Used interface                              : Installed external ASPI interface

Used output format : Internal WAV Routines
Sample format      : 44.100 Hz; 16 Bit; Stereo


TOC of the extracted CD

     Track |   Start  |  Length  | Start sector | End sector
    ---------------------------------------------------------
        1  |  0:00.00 |  2:21.18 |         0    |    10592   
        2  |  2:21.18 |  0:11.72 |     10593    |    11489   
        3  |  2:33.15 |  4:37.68 |     11490    |    32332   
        4  |  7:11.08 |  3:57.07 |     32333    |    50114   
        5  | 11:08.15 |  3:38.00 |     50115    |    66464   
        6  | 14:46.15 |  4:04.60 |     66465    |    84824   
        7  | 18:51.00 |  4:22.55 |     84825    |   104529   
        8  | 23:13.55 |  3:07.70 |    104530    |   118624   
        9  | 26:21.50 |  4:19.15 |    118625    |   138064   
       10  | 30:40.65 |  2:50.18 |    138065    |   150832   
       11  | 33:31.08 |  2:58.05 |    150833    |   164187   
       12  | 36:29.13 |  2:58.47 |    164188    |   177584   
       13  | 39:27.60 |  4:21.13 |    177585    |   197172   
       14  | 43:48.73 |  5:50.15 |    197173    |   223437   
       15  | 49:39.13 |  4:08.65 |    223438    |   242102   
       16  | 53:48.03 |  4:07.70 |    242103    |   260697   
       17  | 57:55.73 |  3:41.20 |    260698    |   277292   
       18  | 61:37.18 |  8:23.62 |    277293    |   315079   


Range status and errors

Selected range

     Filename C:\Documents and Settings\Мои документы\Spliff  - Alles Gute.eac.covers.by.rat.lossless-muz.ucoz.com\Spliff  - Alles Gute.eac.covers.by.rat.lossless-muz.ucoz.wav

     Peak level 99.0 %
     Range quality 100.0 %
     Copy CRC 37C294FA
     Copy OK

No errors occurred

End of status report
[/spoiler]
ed2k: Spliff.-.Alles.Gute.eac.covers.by.rat.lossless-muz.ucoz.com.rar  [431.91 Mb]

Responder

Voltar para “Álbuns Lossless // Lossless Complete Albums”