Phil Collins - Going Back (2010) [APE]

Formatos Lossless // File formats (FLAC, WAV, MLP, APE, TTA, ALS, etc.)

Moderador: Moderador

Responder
rat24

Phil Collins - Going Back (2010) [APE]

Mensagem por rat24 » 20 set 2010, 20:37

Imagem

Released 28 September 2010 (2010-09-28)
Recorded 2009-2010
Genre Contemporary R&B, soul, pop
Label Atlantic
Producer Phil Collins


[spoiler]
Going Back is Phil Collins's eighth studio album. It will be released on 28 September 2010[1] and features covers of 60s Motown & Soul standards. It also was his first full solo release in eight years, Collins having primarily concentrated on soundtracks, compilations, and his extensive touring as a solo artist and with Genesis. Collins has previously recorded and performed covers of Motown songs in his career. Most famously, his cover of "You Can't Hurry Love" reached No.1 on the UK charts in 1982. In addition, "The Tears of a Clown" appeared as a B-side on the 2003 single "The Least You Can Do", and a live version of "My Girl" first appeared on the Japanese release Live from the Board in 1995 and later on the 2004 album Love Songs: A Compilation... Old and New. There are two editions of the album; one with 18 tracks and a limited special edition with all 29 songs Collins recorded.[2] The album will be promoted with a series of live shows in the summer of 2010.
[/spoiler]
01. Girl (Why You Wanna Make Me Blue) [0:02:33.22]
02. (Love Is Like A) Heatwave [0:02:53.02]
03. Uptight (Everything's Alright) [0:03:02.02]
04. Some Of Your Lovin' [0:03:19.47]
05. In My Lonely Room [0:02:25.28]
06. Take Me In Your Arms (Rock Me For A Little While) [0:02:58.15]
07. Blame It On The Sun [0:03:26.11]
08. Papa Was A Rolling Stone [0:06:43.58]
09. Never Dreamed You'd Leave In Summer [0:02:59.65]
10. Standing In The Shadows Of Love [0:02:42.23]
11. Do I Love You [0:02:50.38]
12. Jimmy Mack [0:02:56.50]
13. Something About You [0:02:47.02]
14. Love Is Here And Now You're Gone [0:02:40.05]
15. Loving You Is Sweeter Than Ever [0:02:48.23]
16. Going To A Go-Go [0:02:49.12]
17. Talkin About My Baby [0:02:47.58]
18. Going Back [0:04:37.19]

[spoiler]

Código: Selecionar todos

Exact Audio Copy V0.99 prebeta 4 from 23. January 2008

EAC extraction logfile from 17. August 2010, 20:47

Phil Collins / Going Back

Used drive  : Optiarc DVD RW AD-7170A   Adapter: 3  ID: 0

Read mode               : Secure
Utilize accurate stream : Yes
Defeat audio cache      : Yes
Make use of C2 pointers : No

Read offset correction                      : 48
Overread into Lead-In and Lead-Out          : No
Fill up missing offset samples with silence : Yes
Delete leading and trailing silent blocks   : No
Null samples used in CRC calculations       : Yes
Used interface                    : Installed external ASPI interface

Used output format : Internal WAV Routines
Sample format      : 44.100 Hz; 16 Bit; Stereo

TOC of the extracted CD

       Track |   Start  |  Length  | Start sector | End sector   
      ---------------------------------------------------------
          1  |  0:00.00 |  2:33.22 |         0    |    11496     
          2  |  2:33.22 |  2:53.02 |     11497    |    24473     
          3  |  5:26.24 |  3:02.02 |     24474    |    38125     
          4  |  8:28.26 |  3:19.47 |     38126    |    53097     
          5  | 11:47.73 |  2:25.28 |     53098    |    64000     
          6  | 14:13.26 |  2:58.15 |     64001    |    77365     
          7  | 17:11.41 |  3:26.11 |     77366    |    92826     
          8  | 20:37.52 |  6:43.58 |     92827    |   123109     
          9  | 27:21.35 |  2:59.65 |    123110    |   136599     
         10  | 30:21.25 |  2:42.23 |    136600    |   148772     
         11  | 33:03.48 |  2:50.38 |    148773    |   161560     
         12  | 35:54.11 |  2:56.50 |    161561    |   174810     
         13  | 38:50.61 |  2:47.02 |    174811    |   187337     
         14  | 41:37.63 |  2:40.05 |    187338    |   199342     
         15  | 44:17.68 |  2:48.23 |    199343    |   211965     
         16  | 47:06.16 |  2:49.12 |    211966    |   224652     
         17  | 49:55.28 |  2:47.58 |    224653    |   237235     
         18  | 52:43.11 |  4:37.19 |    237236    |   258029     

Range status and errors

Selected range

       Filename C:\Documents and Settings\Мои документы\Phil Collins - Going Backeac.covers..by.rat.Israel-club.my1.ru\Phil Collins - Going Back.wav

       Peak level 100.0 %
       Range quality 100.0 %
       Copy CRC 24A04ADB
       Copy OK

No errors occurred

End of status report
[/spoiler]
ed2k: Phil.Collins.-.Going.Back.eac.covers.by.rat.lossless-muz.ucoz.com.rar  [377.76 Mb]

Responder

Voltar para “Álbuns Lossless // Lossless Complete Albums”