Scorpions - Live Bites (1995) F!N4LShare

Formatos Lossless // File formats (FLAC, WAV, MLP, APE, TTA, ALS, etc.)

Moderador: Moderador

Responder
Avatar do Utilizador
Maike
Utilizador
Utilizador
Mensagens: 148
Registado: 16 mar 2009, 23:46

Scorpions - Live Bites (1995) F!N4LShare

Mensagem por Maike » 17 set 2010, 14:48



Informações:

Live Bites é um álbum ao vivo da banda Scorpions, lançado em abril de 1995 pela Polygram International.

É um disco que reúne alguns dos maiores sucessos da banda, principalmente dos discos Blackout e o recém lançado Love at First Sting, que se tornou um dos albúns de maior sucesso da banda.

O disco foi gravado em diversas cidades, passando por Leningrado (Rússia), São Francisco (Estados Unidos), Cidade do México (México), Berlim (Alemanha) e Munique (Alemanha).

Tracklist:

01 - Scorpions - Tease Me, Please Me.flac
Type: FLAC 1137Kbps , Stereo, 44.1KHz
02 - Scorpions - Is There Anybody There.flac
Type: FLAC 1102Kbps , Stereo, 44.1KHz
03 - Scorpions - Rhythm of Love.flac
Type: FLAC 1133Kbps , Stereo, 44.1KHz
04 - Scorpions - In Trance.flac
Type: FLAC 1099Kbps , Stereo, 44.1KHz
05 - Scorpions - No Pain No Gain.flac
Type: FLAC 1125Kbps , Stereo, 44.1KHz
06 - Scorpions - When the Smoke Is Going Down.flac
Type: FLAC 985Kbps , Stereo, 44.1KHz
07 - Scorpions - Ave Maria No Morro.flac
Type: FLAC 1064Kbps , Stereo, 44.1KHz
08 - Scorpions - Living for Tomorrow.flac
Type: FLAC 1032Kbps , Stereo, 44.1KHz
09 - Scorpions - Concerto in V.flac
Type: FLAC 930Kbps , Stereo, 44.1KHz
10 - Scorpions - Alien Nation.flac
Type: FLAC 1149Kbps , Stereo, 44.1KHz
11 - Scorpions - Hit Between The Eyes.flac
Type: FLAC 1159Kbps , Stereo, 44.1KHz
12 - Scorpions - Crazy World.flac
Type: FLAC 1116Kbps , Stereo, 44.1KHz
13 - Scorpions - Wind of Change.flac
Type: FLAC 1061Kbps , Stereo, 44.1KHz
14 - Scorpions - Heroes Don't Cry.flac
Type: FLAC 1041Kbps , Stereo, 44.1KHz
15 - Scorpions - White Dove.flac
Type: FLAC 990Kbps , Stereo, 44.1KHz

File Information:
=========================
Softwares: Exact Audio Copy e FLAC + FLAC Frontend
Formato: FLAC level "0"
Source: CD/Album
File Size: 515.56 MB
Released: 1995
Genre: Rock
RIPPER: Maike
Group: F!N4LShare

ADITIONAL:
Label CD
=========================


Screen CDRIP

Imagem

Exact Audio Copy V0.99 prebeta 5 from 4. May 2009

EAC extraction logfile from 31. July 2010, 21:09

Scorpions / Live Bites

Used drive : PIONEER DVD-RW DVR-215 Adapter: 2 ID: 1

Read mode : Secure
Utilize accurate stream : Yes
Defeat audio cache : Yes
Make use of C2 pointers : No

Read offset correction : 48
Overread into Lead-In and Lead-Out : No
Fill up missing offset samples with silence : Yes
Delete leading and trailing silent blocks : No
Null samples used in CRC calculations : Yes
Used interface : Native Win32 interface for Win NT & 2000
Gap handling : Appended to previous track

Used output format : Internal WAV Routines
Sample format : 44.100 Hz; 16 Bit; Stereo


TOC of the extracted CD

Track | Start | Length | Start sector | End sector
---------------------------------------------------------
1 | 0:00.00 | 4:52.22 | 0 | 21921
2 | 4:52.22 | 4:08.00 | 21922 | 40521
3 | 9:00.22 | 3:45.58 | 40522 | 57454
4 | 12:46.05 | 4:06.22 | 57455 | 75926
5 | 16:52.27 | 4:06.43 | 75927 | 94419
6 | 20:58.70 | 2:37.05 | 94420 | 106199
7 | 23:36.00 | 3:15.62 | 106200 | 120886
8 | 26:51.62 | 6:55.35 | 120887 | 152046
9 | 33:47.22 | 3:00.40 | 152047 | 165586
10 | 36:47.62 | 5:29.40 | 165587 | 190301
11 | 42:17.27 | 4:08.38 | 190302 | 208939
12 | 46:25.65 | 5:33.30 | 208940 | 233944
13 | 51:59.20 | 5:47.00 | 233945 | 259969
14 | 57:46.20 | 4:32.12 | 259970 | 280381
15 | 62:18.32 | 4:17.68 | 280382 | 299724


Track 1

Filename I:\Scorpions - Live Bites\01 - Scorpions - Tease Me Please Me.wav

Pre-gap length 0:00:02.00

Peak level 100.0 %
Track quality 100.0 %
Test CRC BEFB3328
Copy CRC BEFB3328
Cannot be verified as accurate (confidence 10) [2B8FBF26], AccurateRip returned [6CAE5BAA]
Copy OK

Track 2

Filename I:\Scorpions - Live Bites\02 - Scorpions - Is There Anybody There .wav

Peak level 100.0 %
Track quality 100.0 %
Test CRC 5556F40C
Copy CRC 5556F40C
Cannot be verified as accurate (confidence 10) [A3583ED0], AccurateRip returned [D0C75A34]
Copy OK

Track 3

Filename I:\Scorpions - Live Bites\03 - Scorpions - Rhythm of Love.wav

Peak level 100.0 %
Track quality 99.9 %
Test CRC 9B810841
Copy CRC 9B810841
Cannot be verified as accurate (confidence 10) [8FEEE9BD], AccurateRip returned [FF474DCC]
Copy OK

Track 4

Filename I:\Scorpions - Live Bites\04 - Scorpions - In Trance.wav

Peak level 100.0 %
Track quality 100.0 %
Test CRC 25A831CF
Copy CRC 25A831CF
Cannot be verified as accurate (confidence 10) [B1BCB1AC], AccurateRip returned [71B7FA12]
Copy OK

Track 5

Filename I:\Scorpions - Live Bites\05 - Scorpions - No Pain No Gain.wav

Peak level 100.0 %
Track quality 100.0 %
Test CRC DBC6721D
Copy CRC DBC6721D
Cannot be verified as accurate (confidence 10) [A18D64E3], AccurateRip returned [733B5D37]
Copy OK

Track 6

Filename I:\Scorpions - Live Bites\06 - Scorpions - When the Smoke Is Going Down.wav

Peak level 89.6 %
Track quality 99.9 %
Test CRC EDB08D91
Copy CRC EDB08D91
Cannot be verified as accurate (confidence 10) [96252625], AccurateRip returned [CD7DB545]
Copy OK

Track 7

Filename I:\Scorpions - Live Bites\07 - Scorpions - Ave Maria No Morro.wav

Peak level 72.9 %
Track quality 100.0 %
Test CRC 3896FA1D
Copy CRC 3896FA1D
Cannot be verified as accurate (confidence 10) [736A5AE1], AccurateRip returned [32392EEF]
Copy OK

Track 8

Filename I:\Scorpions - Live Bites\08 - Scorpions - Living for Tomorrow.wav

Peak level 100.0 %
Track quality 100.0 %
Test CRC 3DB3E2B1
Copy CRC 3DB3E2B1
Cannot be verified as accurate (confidence 10) [CFEE7823], AccurateRip returned [DD70DBB6]
Copy OK

Track 9

Filename I:\Scorpions - Live Bites\09 - Scorpions - Concerto in V.wav

Peak level 72.9 %
Track quality 100.0 %
Test CRC FE8E6B51
Copy CRC FE8E6B51
Cannot be verified as accurate (confidence 10) [058AE066], AccurateRip returned [A59CF431]
Copy OK

Track 10

Filename I:\Scorpions - Live Bites\10 - Scorpions - Alien Nation.wav

Peak level 100.0 %
Track quality 100.0 %
Test CRC 1A33B241
Copy CRC 1A33B241
Cannot be verified as accurate (confidence 9) [E42CFE38], AccurateRip returned [83915991]
Copy OK

Track 11

Filename I:\Scorpions - Live Bites\11 - Scorpions - Hit Between The Eyes.wav

Peak level 100.0 %
Track quality 100.0 %
Test CRC 34234854
Copy CRC 34234854
Cannot be verified as accurate (confidence 10) [C0C80E03], AccurateRip returned [7E54662F]
Copy OK

Track 12

Filename I:\Scorpions - Live Bites\12 - Scorpions - Crazy World.wav

Peak level 100.0 %
Track quality 99.9 %
Test CRC 8640B7E6
Copy CRC 8640B7E6
Cannot be verified as accurate (confidence 10) [4B8AD5C6], AccurateRip returned [457753BB]
Copy OK

Track 13

Filename I:\Scorpions - Live Bites\13 - Scorpions - Wind of Change.wav

Peak level 100.0 %
Track quality 99.9 %
Test CRC 03AED4E4
Copy CRC 03AED4E4
Cannot be verified as accurate (confidence 10) [2525EADD], AccurateRip returned [B3172520]
Copy OK

Track 14

Filename I:\Scorpions - Live Bites\14 - Scorpions - Heroes Don't Cry.wav

Pre-gap length 0:00:01.46

Peak level 100.0 %
Track quality 100.0 %
Test CRC 235B69C6
Copy CRC 235B69C6
Cannot be verified as accurate (confidence 10) [187864BA], AccurateRip returned [A2BD1495]
Copy OK

Track 15

Filename I:\Scorpions - Live Bites\15 - Scorpions - White Dove.wav

Pre-gap length 0:00:02.22

Peak level 100.0 %
Track quality 100.0 %
Test CRC A53BE161
Copy CRC A53BE161
Cannot be verified as accurate (confidence 10) [4D33FCAF], AccurateRip returned [F3710ECE]
Copy OK


No tracks could be verified as accurate
You may have a different pressing from the one(s) in the database

No errors occurred

End of status report


e-link
ed2k: Scorpions.-.Live.Bites.[1995].[FLAC].[by.Maike].F!N4LShare.rar  [515.56 Mb]

Responder

Voltar para “Álbuns Lossless // Lossless Complete Albums”