Gary Glitter - Touch Me(Limited Edition) (1973) [APE]

Formatos Lossless // File formats (FLAC, WAV, MLP, APE, TTA, ALS, etc.)

Moderador: Moderador

Responder
rat24

Gary Glitter - Touch Me(Limited Edition) (1973) [APE]

Mensagem por rat24 » 08 set 2010, 15:32

Imagem

Released 1973
Genre Rock and roll
Format eac-ape
Label Bell Records
Producer Mike Leander


[spoiler]
Touch Me was Gary Glitter's second album, released in 1973. It includes the top 5 hits "Do You Wanna Touch Me? (Oh Yeah!)" and "Hello, Hello, I'm Back Again". It was issued as he was reaching the height of his fame, but doesn't contain his career anthem "I'm the Leader of the Gang I Am!" (UK #1) or its follow-up "I Love You Love Me Love" (UK #1), as this album was issued several months before.
[/spoiler]
01. Do You Wanna Touch Me (Oh Yeah) [0:03:19.17]
02. Come On, Come In, Get On [0:02:32.40]
03. Happy Birthday [0:02:58.23]
04. Hard On Me [0:02:16.37]
05. To Know You Is To Love You [0:02:51.18]
06. Money Honey [0:02:53.51]
07. Hello Hello, I'm Back Again [0:03:20.30]
08. Sidewalk Sinner [0:02:32.61]
09. Didn't I Do It Right [0:03:22.03]
10. Lonely Boy [0:03:28.30]
11. Hold On To What You Got [0:03:17.45]
12. I.O.U. [0:03:08.12]
13. Oh Yes You're Beautiful [0:03:50.40]
14. Would If I Could But I Cant't [0:02:50.70]
15. I'm Right, You're Wrong, I Win [0:02:38.70]
16. I'll Carry Your Picture Everywhere [0:03:07.10]

[spoiler]

Código: Selecionar todos

Exact Audio Copy V0.99 prebeta 4 from 23. January 2008

EAC extraction logfile from 2. September 2010, 16:18

 Gary Glitter  / Touch Me- Limited Edition

Used drive  : Optiarc DVD RW AD-7170A   Adapter: 3  ID: 0

Read mode               : Secure
Utilize accurate stream : Yes
Defeat audio cache      : Yes
Make use of C2 pointers : No

Read offset correction                      : 48
Overread into Lead-In and Lead-Out          : No
Fill up missing offset samples with silence : Yes
Delete leading and trailing silent blocks   : No
Null samples used in CRC calculations       : Yes
Used interface                              : Installed external ASPI interface

Used output format : Internal WAV Routines
Sample format      : 44.100 Hz; 16 Bit; Stereo


TOC of the extracted CD

     Track |   Start  |  Length  | Start sector | End sector
    ---------------------------------------------------------
        1  |  0:00.00 |  3:19.17 |         0    |    14941   
        2  |  3:19.17 |  2:32.40 |     14942    |    26381   
        3  |  5:51.57 |  2:58.23 |     26382    |    39754   
        4  |  8:50.05 |  2:16.37 |     39755    |    49991   
        5  | 11:06.42 |  2:51.18 |     49992    |    62834   
        6  | 13:57.60 |  2:53.51 |     62835    |    75860   
        7  | 16:51.36 |  3:20.30 |     75861    |    90890   
        8  | 20:11.66 |  2:32.61 |     90891    |   102351   
        9  | 22:44.52 |  3:22.03 |    102352    |   117504   
       10  | 26:06.55 |  3:28.30 |    117505    |   133134   
       11  | 29:35.10 |  3:17.45 |    133135    |   147954   
       12  | 32:52.55 |  3:08.12 |    147955    |   162066   
       13  | 36:00.67 |  3:50.40 |    162067    |   179356   
       14  | 39:51.32 |  2:50.70 |    179357    |   192176   
       15  | 42:42.27 |  2:38.70 |    192177    |   204096   
       16  | 45:21.22 |  3:07.10 |    204097    |   218131   


Range status and errors

Selected range

     Filename C:\Documents and Settings\Мои документы\Gary Glitter  - Touch Me- Limited Edition.ape.covers.by.rat.lossless-muz.ucoz.com\Gary Glitter  - Touch Me- Limited Edition.ape.covers.by.rat.lossless-muz.ucoz.wav

     Peak level 94.3 %
     Range quality 100.0 %
     Copy CRC C4039121
     Copy OK

No errors occurred

End of status report
[/spoiler]

ed2k: Gary.Glitter.-.Touch.Me-.Limited.Edition.ape.covers.by.rat.lossless-muz.ucoz.com.rar  [283.55 Mb]

Responder

Voltar para “Álbuns Lossless // Lossless Complete Albums”