Killer - Thriller (1982/87) [APE]

Formatos Lossless // File formats (FLAC, WAV, MLP, APE, TTA, ALS, etc.)

Moderador: Moderador

Responder
rat24

Killer - Thriller (1982/87) [APE]

Mensagem por rat24 » 26 ago 2010, 03:43

Imagem

Artist:Killer
Album: Thriller
Format:EAC APE
Genre: Heavy Metal
Label: trend Records


[spoiler]
Killer is a heavy metal band from Solothurn, Switzerland formed in 1979 after the split of Switzerland's rockgroup Nr. 2 Kaktus. Guitar player CROWN KOCHER founded with MARK BROMAN, ALI ALLEMANN, MANY MAURER and BRIAN KOFMEHL the new Swiss Rock Shock. The first Killer album called "LADYKILLER" was recorded in Spring 1981, at New Sound Studio with producer "CORRY KNOBEL". They sold over 12000 LPs in the first quarter 1981. The gigs became greater... Well equipped with a large King-Size P.A. and a giant lightshow, KILLER reached the Nr. 2 status in Switzerland after their compatriots KROKUS. With the next album called THRILLER, the band released 1982 their best ever recorded songmaterial. Despite increasing popularity, KILLER's third album STRONGER THAN EVER released 1983 did not contribute to the band's final breakthru and a new tour with Motörhead in autumn 1983 has been cancelled after the first gig in Stuttgart, Germany. After this dissapointing experience, the members of KILLER split and them all founded their own group. Guitar player JAN VAN CROW has recorded another album called "YOUNG BLOOD" with three new musicians, the weakest of all KILLER albums, measured on sellings, but however the KILLER-album with a new singer performance on it... Poor album-sellings and several problems around the band meant the end of KILLER in 1994.
[/spoiler]

01. Break My Chains [0:04:41.48]
02. Stealin' My Mind Away [0:04:46.32]
03. The Great Escape [0:04:57.20]
04. Prisoner Of The Night [0:06:25.50]
05. Never Touch A Tiger [0:04:25.10]
06. Out Of The Frontline [0:04:31.40]
07. Take Me, Break Me, Shake Me [0:03:30.48]
08. Sell Your Soul [0:04:29.15]


[spoiler]

Código: Selecionar todos

Exact Audio Copy V0.99 prebeta 4 from 23. January 2008

EAC extraction logfile from 23. August 2010, 20:31

Killer / Thriller

Used drive  : Optiarc DVD RW AD-7170A   Adapter: 3  ID: 0

Read mode               : Secure
Utilize accurate stream : Yes
Defeat audio cache      : Yes
Make use of C2 pointers : No

Read offset correction                      : 48
Overread into Lead-In and Lead-Out          : No
Fill up missing offset samples with silence : Yes
Delete leading and trailing silent blocks   : No
Null samples used in CRC calculations       : Yes
Used interface                    : Installed external ASPI interface

Used output format : Internal WAV Routines
Sample format      : 44.100 Hz; 16 Bit; Stereo

TOC of the extracted CD

      Track |   Start  |  Length  | Start sector | End sector 
     ---------------------------------------------------------
         1  |  0:00.00 |  4:41.48 |         0    |    21122   
         2  |  4:41.48 |  4:46.32 |     21123    |    42604   
         3  |  9:28.05 |  4:57.20 |     42605    |    64899   
         4  | 14:25.25 |  6:25.50 |     64900    |    93824   
         5  | 20:51.00 |  4:25.10 |     93825    |   113709   
         6  | 25:16.10 |  4:31.40 |    113710    |   134074   
         7  | 29:47.50 |  3:30.48 |    134075    |   149872   
         8  | 33:18.23 |  4:29.15 |    149873    |   170062   

Range status and errors

Selected range

      Filename C:\Documents and Settings\Мои документы\Killer - Thriller.ape.covers..by.rat.lossless-muz.ucoz.com\Killer - Thriller.ape.covers..by.rat.lossless-muz.ucoz.wav

      Peak level 79.4 %
      Range quality 100.0 %
      Copy CRC 8CFE9229
      Copy OK

No errors occurred

End of status report
[/spoiler]

ed2k: Killer.-.Thriller.ape.covers..by.rat.lossless-muz.ucoz.com.rar  [249.83 Mb]

Responder

Voltar para “Álbuns Lossless // Lossless Complete Albums”