HELIX - Back for another taste (1990) (Japan ed.) [APE]

Formatos Lossless // File formats (FLAC, WAV, MLP, APE, TTA, ALS, etc.)

Moderador: Moderador

Responder
rat24

HELIX - Back for another taste (1990) (Japan ed.) [APE]

Mensagem por rat24 » 21 ago 2010, 07:36

Imagem

* Audio CD (April 13, 1991)
* Number of Discs: 1
* Format: eac-ape
* Label: Teichiku records (Japan)
* Genre: Hard'n'heavy


[spoiler]
Let's get one thing straight: Back For Another Taste was Helix' best album. It's marred by both tragedy and triumph, but musically it has not been topped by this band.

First, the tragedy. After 16 years in Helix, "Dr." Brent Doerner departed midway through the making of this album. Although he'd come back briefly for the next album, this was the real end of his tenure in Helix. His absense was never quite filled. Second and most importantly, also after 16 years in Helix, Paul Hackman was killed during the band's Western Canadian tour. Their tourbus driver fell asleep and Hackman was thrown from the vehicle. He died on the way to hospital.

Suiting, then, that these rock veterans' last album should be so excellent.

First single "The Storm" kicks it up with a Doors-like groove and some amazing guitar bits from Hackman. Vollmer's singing had never sounded so fresh, not since the early days. Fritz' drumming is stellar, but it gets even better: Wait until you hear "Running Wild In The 21st Century". It's still a staple of Helix' live set today. The video for this track won them a prestigious MuchMusic video award. The third single, "Good To The Last Drop" also garnered much video and radio play, deservedly so. It's a "power ballad" and an amazing one at that. (Note: The version of "Good To The Last Drop" here is different from the single mix, it lacks the keyboard part. That version is available elsewhere.)

You've heard the demo of "Give It To You" on the previous years' "Over 60 Minutes With Helix" compilation, but here it's fleshed out in a properly recorded album version. "Breakdown" is a dark, moody song with an excellent chorus, perhaps forshadowing the coming tragedy. "Rockin' Rollercoaster" & "Midnight Express" are two of the catchiest songs that Brian or Paul have ever written, and "Wheels Of Thunder" & "Heavy Metal Cowboys" are two of the heaviest!

There are some surprises on the album as well. Brian Doener, one of Canada's finest musicians, former Helix drummer, and Brent Doerner's brother, plays drums on three tracks, classin' up the place as always. Brent stuck around long enough to record two guitar solos. Let's not forget longtime bassist Daryl Gray either, he's laying down some excellent grooves on "The Storm", enjoying some of the spotlight.

When Back For Another Taste was first released in 1990, it revitalized Helix's career, if only temporarily, but it still sounds fresh and exciting. If you don't own any Helix yet, this album is an excellent choice to start. It had three singles and the album tracks were anything but filler. If you do own some Helix stuff, but not this...why the heck not?
[/spoiler]
01. The storm [0:04:28.45]
02. Running wild in the 21st century [0:03:51.00]
03. Thatґs life [0:03:41.55]
04. Breakdown [0:05:27.38]
05. Heavy metal cowboys [0:03:01.70]
06. Wild in the streets [0:03:43.00]
07. Back for another taste [0:03:58.32]
08. Rockinґrollercoaster [0:03:20.00]
09. Midnight express [0:04:06.63]
10. Good to the last drop [0:04:29.02]
11. Give it to you [0:04:06.33]
12. Wheels of Thunder [0:04:22.74]


[spoiler]

Código: Selecionar todos

Exact Audio Copy V0.99 prebeta 4 from 23. January 2008

EAC extraction logfile from 12. August 2010, 9:36

Helix / Back for another taste

Used drive  : Optiarc DVD RW AD-7170A   Adapter: 3  ID: 0

Read mode               : Secure
Utilize accurate stream : Yes
Defeat audio cache      : Yes
Make use of C2 pointers : No

Read offset correction                      : 48
Overread into Lead-In and Lead-Out          : No
Fill up missing offset samples with silence : Yes
Delete leading and trailing silent blocks   : No
Null samples used in CRC calculations       : Yes
Used interface                    : Installed external ASPI interface

Used output format : Internal WAV Routines
Sample format      : 44.100 Hz; 16 Bit; Stereo

TOC of the extracted CD

      Track |   Start  |  Length  | Start sector | End sector 
     ---------------------------------------------------------
         1  |  0:00.00 |  4:28.45 |         0    |    20144   
         2  |  4:28.45 |  3:51.00 |     20145    |    37469   
         3  |  8:19.45 |  3:41.55 |     37470    |    54099   
         4  | 12:01.25 |  5:27.38 |     54100    |    78662   
         5  | 17:28.63 |  3:01.70 |     78663    |    92307   
         6  | 20:30.58 |  3:43.00 |     92308    |   109032   
         7  | 24:13.58 |  3:58.32 |    109033    |   126914   
         8  | 28:12.15 |  3:20.00 |    126915    |   141914   
         9  | 31:32.15 |  4:06.63 |    141915    |   160427   
        10  | 35:39.03 |  4:29.02 |    160428    |   180604   
        11  | 40:08.05 |  4:06.33 |    180605    |   199087   
        12  | 44:14.38 |  4:22.74 |    199088    |   218811   

Range status and errors

Selected range

      Filename C:\Documents and Settings\Мои документы\Helix - Back for another taste.ape.covers.by.rat.lossless-muz.ucoz.com\Helix - Back for another taste.ape.covers.by.rat.lossless-muz.ucoz.wav

      Peak level 99.8 %
      Range quality 99.9 %
      Copy CRC F4182599
      Copy OK

No errors occurred

End of status report
[/spoiler]

ed2k: Helix.-.Back.for.another.taste.ape.covers.by.rat.lossless-muz.ucoz.com.rar  [336.01 Mb]

Responder

Voltar para “Álbuns Lossless // Lossless Complete Albums”