Gary Glitter - C'mon C'mon :Party Album (1987) [APE]

Formatos Lossless // File formats (FLAC, WAV, MLP, APE, TTA, ALS, etc.)

Moderador: Moderador

Responder
rat24

Gary Glitter - C'mon C'mon :Party Album (1987) [APE]

Mensagem por rat24 » 10 ago 2010, 09:06

Imagem

[spoiler]
Although the late '90s apparently saw the end of Gary Glitter's career, following his conviction for sexual offenses, there is no doubting that for a full 25 years before that tragic denouement, Glitter ranked among Britain's best-loved performers of all time. The hits which catapulted him to fame in the early '70s, the anthemic "Rock and Roll" of course, but also the likes of "I'm the Leader of the Gang," "Do You Wanna Touch Me," and "I Love You Love Me Love," still have the capacity to stir an audience -- as "Rock and Roll" itself proves, every time it airs at a major sporting event in the U.S. And, if it is at all oxymoronic that the King of British Glam should be responsible for one of the national anthems of American Football, then that is simply further testament of what made Gary ...
[/spoiler]

01. I'm The Leader Of The Gang [0:03:30.10]
02. I Didn't Know I Loved You [0:03:20.67]
03. Rock 'N' Roll Part 3 [0:03:44.25]
04. Oh Yes You're Beautiful [0:03:51.05]
05. I Hear You Knocking [0:03:49.38]
06. Dancing In The Streets [0:03:49.07]
07. Dance Me Up [0:03:32.18]
08. Hello! Hello! I'm Back Again [0:03:21.27]
09. I Love You Love Me Love [0:03:12.40]
10. Rock 'N' Roll Part 2 [0:03:00.70]
11. Do You Wanna Touch Me? (Oh Yeah!) [0:03:19.13]
12. Runaround Sue [0:03:49.55]
13. Always Yours [0:03:23.57]
14. Get It On [0:04:34.08]
15. We Got The Heat [0:03:46.05]
16. Another Rock 'N' Roll Christmas [0:03:48.45]


[spoiler]

Código: Selecionar todos

Exact Audio Copy V0.99 prebeta 4 from 23. January 2008

EAC extraction logfile from 6. August 2010, 9:10

Gary Glitter / C'mon C'mon - The Gary Glitter Party Album

Used drive  : Optiarc DVD RW AD-7170A   Adapter: 3  ID: 0

Read mode               : Secure
Utilize accurate stream : Yes
Defeat audio cache      : Yes
Make use of C2 pointers : No

Read offset correction                      : 48
Overread into Lead-In and Lead-Out          : No
Fill up missing offset samples with silence : Yes
Delete leading and trailing silent blocks   : No
Null samples used in CRC calculations       : Yes
Used interface                              : Installed external ASPI interface

Used output format : Internal WAV Routines
Sample format      : 44.100 Hz; 16 Bit; Stereo


TOC of the extracted CD

     Track |   Start  |  Length  | Start sector | End sector
    ---------------------------------------------------------
        1  |  0:00.00 |  3:30.10 |         0    |    15759   
        2  |  3:30.10 |  3:20.67 |     15760    |    30826   
        3  |  6:51.02 |  3:44.25 |     30827    |    47651   
        4  | 10:35.27 |  3:51.05 |     47652    |    64981   
        5  | 14:26.32 |  3:49.38 |     64982    |    82194   
        6  | 18:15.70 |  3:49.07 |     82195    |    99376   
        7  | 22:05.02 |  3:32.18 |     99377    |   115294   
        8  | 25:37.20 |  3:21.27 |    115295    |   130396   
        9  | 28:58.47 |  3:12.40 |    130397    |   144836   
       10  | 32:11.12 |  3:00.70 |    144837    |   158406   
       11  | 35:12.07 |  3:19.13 |    158407    |   173344   
       12  | 38:31.20 |  3:49.55 |    173345    |   190574   
       13  | 42:21.00 |  3:23.57 |    190575    |   205856   
       14  | 45:44.57 |  4:34.08 |    205857    |   226414   
       15  | 50:18.65 |  3:46.05 |    226415    |   243369   
       16  | 54:04.70 |  3:48.45 |    243370    |   260514   


Range status and errors

Selected range

     Filename C:\Documents and Settings\Мои документы\Gary Glitter - Cmon Cmon - Party Album.by.rat.Israel-club.my1.ru\Gary Glitter - C'mon C'mon - The Gary Glitter Party Album.wav

     Peak level 100.0 %
     Range quality 100.0 %
     Copy CRC 8A38E326
     Copy OK

No errors occurred

End of status report
[/spoiler]
ed2k: Gary.Glitter.-.Cmon.Cmon.-.Party.Album.by.rat.eac-ape.covers.lossless-muz.ucoz.com.rar  [335.87 Mb]

Responder

Voltar para “Álbuns Lossless // Lossless Complete Albums”