CPM22 - Chegou a Hora de Recomeçar (2002) *F!N4LShare*

Formatos Lossless // File formats (FLAC, WAV, MLP, APE, TTA, ALS, etc.)

Moderador: Moderador

Responder
Avatar do Utilizador
Maike
Utilizador
Utilizador
Mensagens: 148
Registado: 16 mar 2009, 23:46

CPM22 - Chegou a Hora de Recomeçar (2002) *F!N4LShare*

Mensagem por Maike » 10 jul 2010, 10:30

CPM 22
CHEGOU A HORA DE RECOMEÇAR



Imagem

Informações:

Chegou a Hora de Recomeçar. \Desconfio\ , \Dias Atrás\ e \Não Sei Viver Sem Ter Você\ marcaram sua carreira com direito a participação da música \Atordoado\ em uma novela da Rede Globo \Da Cor do Pecado\. Após todos os êxitos e alegrias de 2002 voltaram para o estúdio.

As letras são todas inspiradas em fatos e momentos que passaram em alguma fase de suas vidas. Este disco conta com a participação de amigos da cena underground como o multimúsico Maurício Sanchez tocando sintetizador em \Argumento\ e Rodrigo da banda \Dead Fish\ que dividiu os vocais da música \Atordoado\ com o Badaui. Koala, que fundou a banda Hateen juntamente com o Japinha participa do disco com a música \Não Sei Viver Sem Ter Você\, de sua autoria.

Faixas:

01. CPM 22 - Desconfio.flac
Type: FLAC 1075Kbps , Stereo, 44.1KHz
02 - CPM 22 - Sonhos e planos.flac
Type: FLAC 1025Kbps , Stereo, 44.1KHz
03 - CPM 22 - Vidas que se encontram.flac
Type: FLAC 1032Kbps , Stereo, 44.1KHz
04 - CPM 22 - Dias atrás.flac
Type: FLAC 1041Kbps , Stereo, 44.1KHz
05 - CPM 22 - Amigos perdidos.flac
Type: FLAC 1047Kbps , Stereo, 44.1KHz
06 - CPM 22 - Especial como você.flac
Type: FLAC 1020Kbps , Stereo, 44.1KHz
07 - CPM 22 - Não sei viver sem ter você.flac
Type: FLAC 1009Kbps , Stereo, 44.1KHz
08 - CPM 22 - Atordoado.flac
Type: FLAC 1078Kbps , Stereo, 44.1KHz
09 - CPM 22 - Garota da TV.flac
Type: FLAC 1072Kbps , Stereo, 44.1KHz
10 - CPM 22 - Ontem.flac
Type: FLAC 1049Kbps , Stereo, 44.1KHz
11 - CPM 22 - Coragem.flac
Type: FLAC 1024Kbps , Stereo, 44.1KHz
12 - CPM 22 - Argumento.flac
Type: FLAC 1029Kbps , Stereo, 44.1KHz
13 - CPM 22 - Peter.flac
Type: FLAC 1016Kbps , Stereo, 44.1KHz
14 - CPM 22 - Mentiras novas.flac
Type: FLAC 890Kbps , Stereo, 44.1KHz

Dados da Ripagem:

===========
Softwares: Exact Audio Copy
Encoded by FLAC v1.2.1
Formato: FLAC level \0\
Genre: Rock
RIPPER.: Achajr
Group.: F!N4LShare
===========


Análise do RIP



Código: Selecionar todos

 V0.99 prebeta 5 from 4. May 2009

Registo da extração do EAC de 1. Julho 2010, 14:29

CPM 22 / Chegou A Hora de Recomeçar

Unidade utilizada  : TSSTcorpCDDVDW SH-S223F   Adapter: 5  ID: 0

Modo de Leitura   :  :
                : Sim
                : Sim
                : Não

Correção do offset de leitura :            : 6
Sobrescrever no Lead-In e Lead-Out          : Não
Preencher offset samples ausentes com silêncio : Sim
Eliminar blocos de silêncio iniciais e finais  : Não
                                    : Sim
                                    : Interface nativa Win32 para Win NT & 2000
                                    :

Formato de saída utilizado :           : Encoder definido
                                : 192 kBit/s
                                : Alta
                                : Não
                                : C:\\Program Files (x86)\\Exact Audio Copy\\Flac\\flac.exe
Opções adicionais na linha de comandos :  : -8 -A tukey(0.25) -A gauss(0.1875) -b 4096 -V -T \"artist=%a\" -T \"title=%t\" -T \"album=%g\" -T \"date=%y\" -T \"tracknumber=%n\" -T \"genre=%m\" %s --sector-align




      |        |        |      |      
   --------------------------------------------
     1 |  0:00.00 |  2:44.55 |     0 |  12354
     2 |  2:44.55 |  2:52.55 |  12355 |  25309
     3 |  5:37.35 |  2:59.42 |  25310 |  38776
     4 |  8:37.02 |  4:08.28 |  38777 |  57404
     5 | 12:45.30 |  2:14.17 |  57405 |  67471
     6 | 14:59.47 |  2:53.38 |  67472 |  80484
     7 | 17:53.10 |  3:46.52 |  80485 |  97486
     8 | 21:39.62 |  2:31.23 |  97487 | 108834
     9 | 24:11.10 |  2:28.35 | 108835 | 119969
    10 | 26:39.45 |  3:55.12 | 119970 | 137606
    11 | 30:34.57 |  2:08.28 | 137607 | 147234
    12 | 32:43.10 |  2:48.45 | 147235 | 159879
    13 | 35:31.55 |  1:30.25 | 159880 | 166654
    14 | 37:02.05 |  4:02.15 | 166655 | 184819


Faixa  1

    Nome do arquivo F:\\CPM_22_Chegou_a_Hora_de_Recomeçar_2002\\01 - CPM 22 - Desconfio.wav

    Extensão do pre-gap  0:00:02.00

    Nível de pico 100.0 %
    Qualidade da faixa 100.0 %
    CRC de Teste A4ED282A
    CRC de Cópia A4ED282A
    Cópia OK

Faixa  2

    Nome do arquivo F:\\CPM_22_Chegou_a_Hora_de_Recomeçar_2002\\02 - CPM 22 - Sonhos e planos.wav

    Nível de pico 100.0 %
    Qualidade da faixa 100.0 %
    CRC de Teste 887F1D72
    CRC de Cópia 887F1D72
    Cópia OK

Faixa  3

    Nome do arquivo F:\\CPM_22_Chegou_a_Hora_de_Recomeçar_2002\\03 - CPM 22 - Vidas que se encontram.wav

    Nível de pico 100.0 %
    Qualidade da faixa 100.0 %
    CRC de Teste 33B07F3B
    CRC de Cópia 33B07F3B
    Cópia OK

Faixa  4

    Nome do arquivo F:\\CPM_22_Chegou_a_Hora_de_Recomeçar_2002\\04 - CPM 22 - Dias atrás.wav

    Nível de pico 100.0 %
    Qualidade da faixa 99.9 %
    CRC de Teste 98286164
    CRC de Cópia 98286164
    Cópia OK

Faixa  5

    Nome do arquivo F:\\CPM_22_Chegou_a_Hora_de_Recomeçar_2002\\05 - CPM 22 - Amigos perdidos.wav

    Nível de pico 100.0 %
    Qualidade da faixa 100.0 %
    CRC de Teste A966ECE4
    CRC de Cópia A966ECE4
    Cópia OK

Faixa  6

    Nome do arquivo F:\\CPM_22_Chegou_a_Hora_de_Recomeçar_2002\\06 - CPM 22 - Especial como você.wav

    Nível de pico 100.0 %
    Qualidade da faixa 100.0 %
    CRC de Teste 665F8426
    CRC de Cópia 665F8426
    Cópia OK

Faixa  7

    Nome do arquivo F:\\CPM_22_Chegou_a_Hora_de_Recomeçar_2002\\07 - CPM 22 - Não sei viver sem ter você.wav

    Nível de pico 100.0 %
    Qualidade da faixa 100.0 %
    CRC de Teste B18C1CBE
    CRC de Cópia B18C1CBE
    Cópia OK

Faixa  8

    Nome do arquivo F:\\CPM_22_Chegou_a_Hora_de_Recomeçar_2002\\08 - CPM 22 - Atordoado.wav

    Nível de pico 100.0 %
    Qualidade da faixa 100.0 %
    CRC de Teste 0F1CD204
    CRC de Cópia 0F1CD204
    Cópia OK

Faixa  9

    Nome do arquivo F:\\CPM_22_Chegou_a_Hora_de_Recomeçar_2002\\09 - CPM 22 - Garota da TV.wav

    Nível de pico 100.0 %
    Qualidade da faixa 100.0 %
    CRC de Teste 1AA818F2
    CRC de Cópia 1AA818F2
    Cópia OK

Faixa 10

    Nome do arquivo F:\\CPM_22_Chegou_a_Hora_de_Recomeçar_2002\\10 - CPM 22 - Ontem.wav

    Nível de pico 100.0 %
    Qualidade da faixa 100.0 %
    CRC de Teste 3ABDB480
    CRC de Cópia 3ABDB480
    Cópia OK

Faixa 11

    Nome do arquivo F:\\CPM_22_Chegou_a_Hora_de_Recomeçar_2002\\11 - CPM 22 - Coragem.wav

    Nível de pico 100.0 %
    Qualidade da faixa 100.0 %
    CRC de Teste 9B34A2C7
    CRC de Cópia 9B34A2C7
    Cópia OK

Faixa 12

    Nome do arquivo F:\\CPM_22_Chegou_a_Hora_de_Recomeçar_2002\\12 - CPM 22 - Argumento.wav

    Nível de pico 100.0 %
    Qualidade da faixa 100.0 %
    CRC de Teste 9DB3E526
    CRC de Cópia 9DB3E526
    Cópia OK

Faixa 13

    Nome do arquivo F:\\CPM_22_Chegou_a_Hora_de_Recomeçar_2002\\13 - CPM 22 - Peter.wav

    Nível de pico 100.0 %
    Qualidade da faixa 99.8 %
    CRC de Teste 4C30AA7A
    CRC de Cópia 4C30AA7A
    Cópia OK

Faixa 14

    Nome do arquivo F:\\CPM_22_Chegou_a_Hora_de_Recomeçar_2002\\14 - CPM 22 - Mentiras novas.wav

    Nível de pico 100.0 %
    Qualidade da faixa 100.0 %
    CRC de Teste A36B3161
    CRC de Cópia A36B3161
    Cópia OK

Não ocorreram erros

Fim do relatório de estado


e-Link:

ed2k: CPM.22.-.Chegou.a.Hora.de.Recomecar.[2002].[FLAC].[by.Achajr].F!N4LShare.rar  [300.91 Mb]

Responder

Voltar para “Álbuns Lossless // Lossless Complete Albums”