America - Human Nature (1998) *rat24*

Formatos Lossless // File formats (FLAC, WAV, MLP, APE, TTA, ALS, etc.)

Moderador: Moderador

Responder
rat24

America - Human Nature (1998) *rat24*

Mensagem por rat24 » 09 jul 2010, 13:34

Imagem

Artist: America
Album: Human Nature
YEAR: 1998
Genre: Aor/classic/pop rock
Qality: EAC_APE

[spoiler]
America disappeared from the recording scene after"PERSPECTIVE" in 1984 which was a big blow for me.The group had provided a steady flow of excellent albums since 1972 of which I'm lucky enough to own all.I was absolutely delighted when"HOURGLASS" made the scene ten years later and now we are blessed with this, their latest album "HUMAN NATURE".A great album which provides strong songs from both Gerry and Dewey.The track "Wednesday Morning" is particularly strong with pleasant characteristics from their early recordings.Other stand-out tracks for me are"From a moving Train","Wheels are Turning" and "Pages" whilst "Hot Town" provides a different slant with its catchy backing vocals - pleasant.A few familiar names appear on the support side - Willie Leacox, Michael Woods, Brad Palmer and the ever appearing Tim Schmit of the "Eagles" on backing vocals.Both Gerry Beckley and Dewey Bunnell prove here that they are still able to write good songs and to perform them at a level which has thrilled many many people throughout the world over the last 27 years.Long Live AMERICA !
[/spoiler]
01. From A Moving Train [0:03:42.13]
02. Wednesday Morning [0:03:45.32]
03. Town And Country [0:03:01.48]
04. Moment To Moment [0:04:56.55]
05. Hidden Talent [0:03:55.10]
06. Wheels Are Turning [0:04:33.50]
07. World Alone [0:03:31.27]
08. Overwhelming World Suite (Overwhelming World - Come Back - Barstow) [0:07:50.50]
09. Pages [0:03:51.40]
10. Hot Town [0:03:42.48]
11. Whispering [0:03:27.02]
12. Oloololo [0:03:07.55]


[spoiler]

Código: Selecionar todos

Exact Audio Copy V0.99 prebeta 4 from 23. January 2008

EAC extraction logfile from 6. July 2010, 20:52

America / Human Nature

Used drive  : Optiarc DVD RW AD-7170A   Adapter: 3  ID: 0

Read mode               : Secure
Utilize accurate stream : Yes
Defeat audio cache      : Yes
Make use of C2 pointers : No

Read offset correction                      : 48
Overread into Lead-In and Lead-Out          : No
Fill up missing offset samples with silence : Yes
Delete leading and trailing silent blocks   : No
Null samples used in CRC calculations       : Yes
Used interface                              : Installed external ASPI interface

Used output format : Internal WAV Routines
Sample format      : 44.100 Hz; 16 Bit; Stereo


TOC of the extracted CD

     Track |   Start  |  Length  | Start sector | End sector
    ---------------------------------------------------------
        1  |  0:00.00 |  3:42.13 |         0    |    16662   
        2  |  3:42.13 |  3:45.32 |     16663    |    33569   
        3  |  7:27.45 |  3:01.48 |     33570    |    47192   
        4  | 10:29.18 |  4:56.55 |     47193    |    69447   
        5  | 15:25.73 |  3:55.10 |     69448    |    87082   
        6  | 19:21.08 |  4:33.50 |     87083    |   107607   
        7  | 23:54.58 |  3:31.27 |    107608    |   123459   
        8  | 27:26.10 |  7:50.50 |    123460    |   158759   
        9  | 35:16.60 |  3:51.40 |    158760    |   176124   
       10  | 39:08.25 |  3:42.48 |    176125    |   192822   
       11  | 42:50.73 |  3:27.02 |    192823    |   208349   
       12  | 46:18.00 |  3:07.55 |    208350    |   222429   


Range status and errors

Selected range

     Filename C:\Documents and Settings\Мои документы\America - Human Nature.by.rat.eac.ape.covers.lossless-muz.ucoz.com\America - Human Nature.by.rat.eac.ape.covers.lossless-muz.ucoz.wav

     Peak level 97.5 %
     Range quality 99.8 %
     Copy CRC 0A1746A7
     Copy OK

No errors occurred

End of status report
[/spoiler]

ed2k: America.-.Human.Nature.by.rat.eac.ape.covers.lossless-muz.ucoz.com.rar  [306.28 Mb]

Responder

Voltar para “Álbuns Lossless // Lossless Complete Albums”