Macy Gray - The Sellout (2010)

Formatos Lossless // File formats (FLAC, WAV, MLP, APE, TTA, ALS, etc.)

Moderador: Moderador

Responder
EzPimpinYa

Macy Gray - The Sellout (2010)

Mensagem por EzPimpinYa » 30 jun 2010, 17:58

Macy Gray - The Sellout (2010)



ALBUM COVER:




Imagem



ARTIST INFO:
Macy Gray, also credited as Natalie Hinds in her music, is an American R&B and soul singer-songwriter, record producer, and actress, famed for her distinctive raspy voice and a singing style heavily influenced by Billie Holiday and Betty Davis.

To date, Gray has released five studio albums, one compilation album, and one live album, with her fifth studio album, The Sellout, released on June 22, 2010; and has received five Grammy Award nominations, winning one. She has appeared in a number of films including Training Day, Spider-Man, and Idlewild. Gray is best known for her international hit single "I Try", taken from her multi-platinum debut album On How Life Is.

It was announced on August 17, 2009 that she will compete on the ninth season of Dancing with the Stars. She was the second contestant eliminated with a total score of 15 from the judges.



ALBUM INFO:
The Sellout is the fifth studio album by American R&B-soul singer–songwriter Macy Gray, set to be released in the United States on June 22, 2010. The album's lead single, "Beauty in the World" was released in April 2010, and was met with generally positive reviews by critics and fans. It was notably used on the series finale of the ABC dramedy Ugly Betty.


TECHNICAL SPECIFICATION:

Código: Selecionar todos

Exact Audio Copy V0.99 prebeta 5 from 4. May 2009

EAC extraction logfile from 18. June 2010, 20:00

Macy Gray / The Sellout

Used drive  : HL-DT-STDVD-RAM GH22LS30   Adapter: 3  ID: 0

Read mode               : Secure
Utilize accurate stream : Yes
Defeat audio cache      : No
Make use of C2 pointers : No

Read offset correction                      : 102
Overread into Lead-In and Lead-Out          : No
Fill up missing offset samples with silence : Yes
Delete leading and trailing silent blocks   : Yes
Null samples used in CRC calculations       : No
Used interface                              : Native Win32 interface for Win NT & 2000
Gap handling                                : Not detected, thus appended to previous track

Used output format              : User Defined Encoder
Selected bitrate                : 1024 kBit/s
Quality                         : High
Add ID3 tag                     : Yes
Command line compressor         : C:\Program Files (x86)\Exact Audio Copy\FLAC\FLAC.EXE
Additional command line options : -6 -V -T "ARTIST=%a" -T "TITLE=%t" -T "ALBUM=%g" -T "DATE=%y" -T "TRACKNUMBER=%n" -T "GENRE=%m" -T "COMMENT=%e" %s -o %d


TOC of the extracted CD

     Track |   Start  |  Length  | Start sector | End sector
    ---------------------------------------------------------
        1  |  0:00.00 |  3:57.50 |         0    |    17824   
        2  |  3:57.50 |  2:56.53 |     17825    |    31077   
        3  |  6:54.28 |  4:36.35 |     31078    |    51812   
        4  | 11:30.63 |  3:50.02 |     51813    |    69064   
        5  | 15:20.65 |  3:49.49 |     69065    |    86288   
        6  | 19:10.39 |  4:37.23 |     86289    |   107086   
        7  | 23:47.62 |  3:56.70 |    107087    |   124856   
        8  | 27:44.57 |  3:32.46 |    124857    |   140802   
        9  | 31:17.28 |  2:27.29 |    140803    |   151856   
       10  | 33:44.57 |  4:02.55 |    151857    |   170061   
       11  | 37:47.37 |  3:19.09 |    170062    |   184995   
       12  | 41:06.46 |  4:04.19 |    184996    |   203314   


Track  1

     Filename H:\Music Collection FLAC (CD)\Artist M\Macy Gray - The Sellout\01 - The Sellout.wav

     Peak level 98.8 %
     Track quality 100.0 %
     Copy CRC 2415E61B
     Copy OK

Track  2

     Filename H:\Music Collection FLAC (CD)\Artist M\Macy Gray - The Sellout\02 - Lately.wav

     Peak level 98.8 %
     Track quality 100.0 %
     Copy CRC 08D6B90B
     Copy OK

Track  3

     Filename H:\Music Collection FLAC (CD)\Artist M\Macy Gray - The Sellout\03 - Kissed It (ft. Velvet Revolver).wav

     Peak level 98.8 %
     Track quality 100.0 %
     Copy CRC 5502161C
     Copy OK

Track  4

     Filename H:\Music Collection FLAC (CD)\Artist M\Macy Gray - The Sellout\04 - Still Hurts (ft. Romika).wav

     Peak level 98.8 %
     Track quality 100.0 %
     Copy CRC A6518A07
     Copy OK

Track  5

     Filename H:\Music Collection FLAC (CD)\Artist M\Macy Gray - The Sellout\05 - Beauty In The World.wav

     Peak level 98.8 %
     Track quality 100.0 %
     Copy CRC 0174820A
     Copy OK

Track  6

     Filename H:\Music Collection FLAC (CD)\Artist M\Macy Gray - The Sellout\06 - Help Me.wav

     Peak level 98.8 %
     Track quality 100.0 %
     Copy CRC ED78CD9B
     Copy OK

Track  7

     Filename H:\Music Collection FLAC (CD)\Artist M\Macy Gray - The Sellout\07 - Let You Win.wav

     Peak level 98.8 %
     Track quality 100.0 %
     Copy CRC 2C1C98F5
     Copy OK

Track  8

     Filename H:\Music Collection FLAC (CD)\Artist M\Macy Gray - The Sellout\08 - That Man.wav

     Peak level 98.8 %
     Track quality 100.0 %
     Copy CRC D25FB6CF
     Copy OK

Track  9

     Filename H:\Music Collection FLAC (CD)\Artist M\Macy Gray - The Sellout\09 - Stalker.wav

     Peak level 98.8 %
     Track quality 100.0 %
     Copy CRC B34789F8
     Copy OK

Track 10

     Filename H:\Music Collection FLAC (CD)\Artist M\Macy Gray - The Sellout\10 - Real Love (ft. Bobby Brown).wav

     Peak level 98.8 %
     Track quality 99.9 %
     Copy CRC 68E16484
     Copy OK

Track 11

     Filename H:\Music Collection FLAC (CD)\Artist M\Macy Gray - The Sellout\11 - On & On.wav

     Peak level 98.8 %
     Track quality 100.0 %
     Copy CRC E97A4555
     Copy OK

Track 12

     Filename H:\Music Collection FLAC (CD)\Artist M\Macy Gray - The Sellout\12 - The Comeback.wav

     Peak level 98.8 %
     Track quality 100.0 %
     Copy CRC 39B9033C
     Copy OK

No errors occurred

End of status report



TRACK LIST:

Imagem


ED2K LINKS:
ed2k: Macy Gray - The Sellout (FLAC).rar  [303.67 Mb]

Responder

Voltar para “Álbuns Lossless // Lossless Complete Albums”