Ozzy Osbourne - Scream (2010) *APE*

Formatos Lossless // File formats (FLAC, WAV, MLP, APE, TTA, ALS, etc.)

Moderador: Moderador

Responder
rat24

Ozzy Osbourne - Scream (2010) *APE*

Mensagem por rat24 » 22 jun 2010, 19:57

Imagem

# Audio CD (June 21, 2010)
# Original Release Date: 2010
# Genre: Heavy metal
# Label: Epic
# Qality: EAC_APE

[spoiler]
If you felt "Black Rain" was a little lacking song wise, then this opus blows away any doubt, a massive return to form, first suggested in "Down To Earth" but now fully realized.

This is perhaps the most melodic offerings from Ozzy since "Bark At the Moon" and "The Ultimate Sin". There is something for everyone here and no one should feel out in the cold.There is also a definate turn away from the downtuned guitar style of Zakk Wylde and towards a more classical metal guitar style from new guy Gus G. I also hear less pro-tools on the vocals this round; and honestly when purely represented Ozzy's vocals sound great.

Early favourite would have to be "Soul Sucker" with it's monstorous riff and thumping bass, caught myself singing it as I walked the dog tonight with the ipod on, hope no one heard. Most would have heard the single "Let Me Hear You Scream" which should go barnstormers in a live setting, opener "Let It Die" with its voodoo-esque feel spirals off an opening guitar break and you know you are in for a real treat, "Life Wont Wait" is close to a ballad but has a nice Beatle-esque flavour, one of Ozzy's tales of living life without regret. "Diggin Me Down" reminds me of early Cooper of all things in the intro, before it distorts into a huge Sabbath riff, lyrically asking the question of how bad things must get before the second coming of the saviour. Great stuff. "Time" is an oddity, not in a bad way with it's plucked strings and almost "Oasis" feel. "I Want It Now" swirls out of the speakers with an almost thrash metal feel, then delivers some very Cradle of Filth-like synth and piano moments,not theft 'cause after all Ozzy is the grandfather of all this stuff. I can even forgive the "I Love You All" epitaph, cornball for sure but sincere.

You know when you are going to love an album and it's going to have staying power. We'll this is such a beast, big songs, catchy as all hell, chest thumping glorious old school metal. Love him or loathe him Ozzy has hit a home run.
[/spoiler]

01. Let It Die [0:06:06.45]
02. Let Me Hear You Scream [0:03:25.58]
03. Soul Sucker [0:04:34.66]
04. Life Won't Wait [0:05:06.58]
05. Diggin' Me Down [0:06:03.45]
06. Crucify [0:03:29.39]
07. Fearless [0:03:41.49]
08. Time [0:05:31.34]
09. I Want It More [0:05:36.58]
10. Latimer's Mercy [0:04:27.03]
11. I Love You All [0:01:02.46]


[spoiler]

Código: Selecionar todos

Exact Audio Copy V0.99 prebeta 4 from 23. January 2008

EAC extraction logfile from 20. June 2010, 21:54

Ozzy Osbourne / Scream

Used drive  : Optiarc DVD RW AD-7170A   Adapter: 3  ID: 0

Read mode               : Secure
Utilize accurate stream : Yes
Defeat audio cache      : Yes
Make use of C2 pointers : No

Read offset correction                      : 48
Overread into Lead-In and Lead-Out          : No
Fill up missing offset samples with silence : Yes
Delete leading and trailing silent blocks   : No
Null samples used in CRC calculations       : Yes
Used interface                              : Installed external ASPI interface

Used output format : Internal WAV Routines
Sample format      : 44.100 Hz; 16 Bit; Stereo


TOC of the extracted CD

     Track |   Start  |  Length  | Start sector | End sector
    ---------------------------------------------------------
        1  |  0:00.00 |  6:06.45 |         0    |    27494   
        2  |  6:06.45 |  3:25.58 |     27495    |    42927   
        3  |  9:32.28 |  4:34.66 |     42928    |    63543   
        4  | 14:07.19 |  5:06.58 |     63544    |    86551   
        5  | 19:14.02 |  6:03.45 |     86552    |   113821   
        6  | 25:17.47 |  3:29.39 |    113822    |   129535   
        7  | 28:47.11 |  3:41.49 |    129536    |   146159   
        8  | 32:28.60 |  5:31.34 |    146160    |   171018   
        9  | 38:00.19 |  5:36.58 |    171019    |   196276   
       10  | 43:37.02 |  4:27.03 |    196277    |   216304   
       11  | 48:04.05 |  1:02.46 |    216305    |   221000   


Range status and errors

Selected range

     Filename C:\Documents and Settings\Мои документы\Ozzy Osbourne - Scream.by.rat.eac.ape.covers.lossless-muz.ucoz.com\Ozzy Osbourne - Scream.by.rat.eac.ape.covers.lossless-muz.ucoz.wav

     Peak level 100.0 %
     Range quality 100.0 %
     Copy CRC 16CCAA2D
     Copy OK

No errors occurred

End of status report
[/spoiler]


ed2k: Ozzy.Osbourne.-.Scream.by.rat.eac.ape.covers.lossless-muz.ucoz.com.rar  [360.14 Mb]

Responder

Voltar para “Álbuns Lossless // Lossless Complete Albums”