Armored Saint - La Raza (dg pack) (2010) *ape*

Formatos Lossless // File formats (FLAC, WAV, MLP, APE, TTA, ALS, etc.)

Moderador: Moderador

Responder
rat24

Armored Saint - La Raza (dg pack) (2010) *ape*

Mensagem por rat24 » 12 jun 2010, 09:26




Label: Metal Blade Records (USA)
Format: CD, Album
Country: US
Released: 2010
Genre: Heavy metal
Quality: EAC_APE



[spoiler]
Armored Saint is the ultimate side project. Despite increasing popularity from their 1982 inception through the early 1990s as a result of good-to-excellent long players, Armored Saint called it quits when vocalist John Bush joined Anthrax and bassist Joey Vera joined Fates Warning (among other bands). Armored Saint reunited to write an album when Anthrax was on hiatus (2000’s “Revelation”) and now that the members’ other high profile commitments have finally subsided Armored Saint is back ten years on with “La Raza.” The album combines twenty year old L.A. “Crue” rock with some modern touches and is pretty good, which makes it disappointing.

Album opener “Loose Cannon” starts with a clave tapping out a Salsa rhythm, which is the first of many Latin touches on “La Raza.” The clave is soon buried by strings and a more standard intro, however. Vera’s bass crawl and power chords start the song itself off and the salsa rhythm and string melody from the intro carry over nicely. An Armored Saint optimist would say “Loose Cannon” is a stripped down hard rock gem, but the cynic calls it a showcase for Vera and Bush, who coincidentally wrote all the music on the album.

Just like the wildly varying opinions of the fans, inconsistency is king on “La Raza.” On the downside: “Head On” is a tepid hard rock puncher with soft hands, particularly the bridge section, solo, and the intermittent and flat blues licks. The acoustic guitars, Red Hot Chili Peppers vibe, atmospheric breaks and grunge feedback on “Black Feet” are all things that Armored Saint isn’t any good at. “Little Monkey” sounds like it was written by a Green Day cover band.

But Armored Saint isn’t completely in hock to twenty year old music clichés. “Get Off the Fence” is a throwback bluesy rocker that does work well, putting Bush’s straightforward delivery next to some changing time signatures and chugging riff jams. “Chilled” is just what the title says but in a good way, and the title track has an irreverent main riff and another excellent extended jam session which is fun for everyone.

The bass and vocals alternate driving and riding shotgun, and the guitars of Jeff Duncan and Phil Sandoval take a backseat. Gonzo Sandoval’s drums might as well be in the trunk. Duncan and Sandoval dutifully play the power chord progressions, pedal effects and solos that were written for them, but the music always forgets and comes back to Vera’s bass and Bush’s vocals. Vera maintains his distinct dexterous style, with each note easily heard above all else, and Bush sounds like he always has – his confident and distinct manner making up for a lack of range or subtlety. If you were to mistake this for an Anthrax Jam session from 2004 you would be forgiven.

All in all “La Raza” showcases a band that isn’t too comfortable and can’t get their ideas to mesh. Whether this is due to the decade long gaps between studio sessions and LP releases, the members disparate music projects and diverging tastes, or just that they had a bad set of days at the office, it doesn’t really change the end product. It is a testament to Armored Saint’s experience and underlying skill that half of “La Raza” would play quite well on the PA during a rock show intermission, but if they had made Armored Saint a priority over the last ten years we might have gotten an album that was more than half full of good songs.
[/spoiler]

1. Loose Cannon
2. Head On
3. Left Hook from Right Field
4. Get Off the Fence
5. Chilled
6. La Raza
7. Black Feet
8. Little Monkey
9. Blues
10. Bandit Country


[spoiler]Exact Audio Copy V0.99 prebeta 4 from 23. January 2008

EAC extraction logfile from 11. June 2010, 9:29

Armored Saint / La Raza

Used drive : Optiarc DVD RW AD-7170A Adapter: 3 ID: 0

Read mode : Secure
Utilize accurate stream : Yes
Defeat audio cache : Yes
Make use of C2 pointers : No

Read offset correction : 48
Overread into Lead-In and Lead-Out : No
Fill up missing offset samples with silence : Yes
Delete leading and trailing silent blocks : No
Null samples used in CRC calculations : Yes
Used interface : Installed external ASPI interface

Used output format : Internal WAV Routines
Sample format : 44.100 Hz; 16 Bit; Stereo


TOC of the extracted CD

Track | Start | Length | Start sector | End sector
---------------------------------------------------------
1 | 0:00.00 | 5:06.61 | 0 | 23010
2 | 5:06.61 | 5:46.24 | 23011 | 48984
3 | 10:53.10 | 5:31.01 | 48985 | 73810
4 | 16:24.11 | 4:48.23 | 73811 | 95433
5 | 21:12.34 | 5:01.73 | 95434 | 118081
6 | 26:14.32 | 6:39.74 | 118082 | 148080
7 | 32:54.31 | 5:08.31 | 148081 | 171211
8 | 38:02.62 | 4:44.01 | 171212 | 192512
9 | 42:46.63 | 3:33.68 | 192513 | 208555
10 | 46:20.56 | 5:15.73 | 208556 | 232253


Range status and errors

Selected range

Filename C:\Documents and Settings\Мои документы\Armored Saint - La Raza.by.rat.eac.ape.covers.lossless-muz.ucoz.com\Armored Saint - La Raza.by.rat.eac.ape.covers.lossless-muz.ucoz.wav

Peak level 100.0 %
Range quality 99.9 %
Copy CRC 1079FDD3
Copy OK

No errors occurred

End of status report[/spoiler]

ed2k: Armored.Saint.-.La.Raza.by.rat.eac.ape.covers.lossless-muz.ucoz.com.rar  [353.12 Mb]

Responder

Voltar para “Álbuns Lossless // Lossless Complete Albums”