Philip Sayce - Innerevolution (2010) *Rat24*

Formatos Lossless // File formats (FLAC, WAV, MLP, APE, TTA, ALS, etc.)

Moderador: Moderador

Responder
rat24

Philip Sayce - Innerevolution (2010) *Rat24*

Mensagem por rat24 » 29 mai 2010, 08:49

Imagem

# Audio CD (5 April 2010)
# Quality: eac/ape
# Label: Provogue
# Genre: Blues/classic rock

[spoiler]
I'd heard a couple of tracks from this guitar slinger and, reading the reviews stating "better than Bonamassa" "almost as good as Bonamassa", well, I thought it would be worth a less than £10 flutter to see whether or not the guy is as good as claimed - and is he? You betcha!
Forget the comparison with JB or SRV, just listen to this guy and take it all in. He can rock with the best of the current crop -witness: ARE YOU READY - great hook that'll get into your brain and stay there! - and on the 7 minutes plus LITTLE MISS AMERICA, you hear the fluid bluesy style reminiscent of Mr Trower (I almost said Hendrix!).
The writing, the guitar playing and the vocalisations of this man show
[/spoiler]
01. Changes [0:05:13.21]
02. Scars [0:03:07.25]
03. Bitter Monday [0:04:35.23]
04. Anymore [0:03:49.52]
05. Take You Away [0:03:19.34]
06. Daydream Tonight [0:04:17.06]
07. My Pearl [0:03:10.19]
08. Tennesse Girl [0:02:53.12]
09. Are You Ready [0:05:35.42]
10. Gimme Some More [0:02:11.52]
11. Little Miss America [0:08:21.51]


[spoiler]Exact Audio Copy V0.99 prebeta 4 from 23. January 2008

EAC extraction logfile from 27. May 2010, 21:32

Philip Sayce / Innerevolution

Used drive : Optiarc DVD RW AD-7170A Adapter: 3 ID: 0

Read mode : Secure
Utilize accurate stream : Yes
Defeat audio cache : Yes
Make use of C2 pointers : No

Read offset correction : 48
Overread into Lead-In and Lead-Out : No
Fill up missing offset samples with silence : Yes
Delete leading and trailing silent blocks : No
Null samples used in CRC calculations : Yes
Used interface : Installed external ASPI interface

Used output format : Internal WAV Routines
Sample format : 44.100 Hz; 16 Bit; Stereo


TOC of the extracted CD

Track | Start | Length | Start sector | End sector
---------------------------------------------------------
1 | 0:00.00 | 5:13.21 | 0 | 23495
2 | 5:13.21 | 3:07.25 | 23496 | 37545
3 | 8:20.46 | 4:35.23 | 37546 | 58193
4 | 12:55.69 | 3:49.52 | 58194 | 75420
5 | 16:45.46 | 3:19.34 | 75421 | 90379
6 | 20:05.05 | 4:17.06 | 90380 | 109660
7 | 24:22.11 | 3:10.19 | 109661 | 123929
8 | 27:32.30 | 2:53.12 | 123930 | 136916
9 | 30:25.42 | 5:35.42 | 136917 | 162083
10 | 36:01.09 | 2:11.52 | 162084 | 171960
11 | 38:12.61 | 8:21.51 | 171961 | 209586


Range status and errors

Selected range

Filename C:\Documents and Settings\Мои документы\Philip Sayce - Innerevolution.APE.COVERS.by.rat.Lossless-muz.ucoz.wav

Peak level 100.0 %
Range quality 99.7 %
Copy CRC AA1FB867
Copy OK

No errors occurred

End of status report[/spoiler]

ed2k: Philip.Sayce.-.Innerevolution.APE.COVERS.by.rat.Lossless-muz.ucoz.com.rar  [339.62 Mb]

Responder

Voltar para “Álbuns Lossless // Lossless Complete Albums”