Desireless - Francois [Japan] (1988) [APE]

Formatos Lossless // File formats (FLAC, WAV, MLP, APE, TTA, ALS, etc.)

Moderador: Moderador

Responder
rat24

Desireless - Francois [Japan] (1988) [APE]

Mensagem por rat24 » 22 mai 2010, 07:24

Imagem

Released 1988
Genre pop/eurodance
Length 48:16
Quality EAC-APE


[spoiler]
Being in Paris for the very first time in 1988...Seeing a very striking video called "John" performed by an Artist named Desireless...thinking, "Is This A Man or Woman?"...I keep hearing "John" and "Voyage Voyage" as I wander about this fantastic city...Return to the States & order, via import catalogue, this amazing CD....It's 2001 and "Francois" continues to hold up incredibly well. If you like Euro-Dance/Pop that's finely crafted, extremely hypnotic with a singer that cannot be beat, you will more than enjoy this one!
[/spoiler]

01. Qui sommes nous [0:04:31.36]
02. Animal [0:04:47.62]
03. Hari фm Ramakrishna [0:05:10.72]
04. Tombйe d'une montagne [0:05:07.60]
05. Oublie-les, oublie [0:03:58.38]
06. Les commencements [0:04:04.55]
07. Elle est comme les йtoiles [0:04:15.45]
08. Qui peut savoir [0:03:48.43]
09. John [0:04:14.43]
10. Dis pourquoi [0:04:42.05]
11. Voyage, voyage [0:04:24.04]


[spoiler]Exact Audio Copy V0.99 prebeta 4 from 23. January 2008

EAC extraction logfile from 16. May 2010, 16:35

Desireless / Franзois

Used drive : TSSTcorpCD/DVDW SH-W162L Adapter: 3 ID: 1

Read mode : Secure
Utilize accurate stream : Yes
Defeat audio cache : Yes
Make use of C2 pointers : No

Read offset correction : 6
Overread into Lead-In and Lead-Out : No
Fill up missing offset samples with silence : Yes
Delete leading and trailing silent blocks : No
Null samples used in CRC calculations : Yes
Used interface : Installed external ASPI interface

Used output format : Internal WAV Routines
Sample format : 44.100 Hz; 16 Bit; Stereo

TOC of the extracted CD

Track | Start | Length | Start sector | End sector
---------------------------------------------------------
1 | 0:00.00 | 4:31.36 | 0 | 20360
2 | 4:31.36 | 4:47.62 | 20361 | 41947
3 | 9:19.23 | 5:10.72 | 41948 | 65269
4 | 14:30.20 | 5:07.60 | 65270 | 88354
5 | 19:38.05 | 3:58.38 | 88355 | 106242
6 | 23:36.43 | 4:04.55 | 106243 | 124597
7 | 27:41.23 | 4:15.45 | 124598 | 143767
8 | 31:56.68 | 3:48.43 | 143768 | 160910
9 | 35:45.36 | 4:14.43 | 160911 | 180003
10 | 40:00.04 | 4:42.05 | 180004 | 201158
11 | 44:42.09 | 4:24.04 | 201159 | 220962

Range status and errors

Selected range

Filename C:\Documents and Settings\Мои документы\Desireless - Franзois.Jap.ed.covers..ape.by.rat.Lossless-muz.ucoz.com\Desireless - Franзois.Jap.ed.covers..ape.by.rat.Lossless-muz.ucoz.wav

Peak level 100.0 %
Range quality 100.0 %
Copy CRC 1F38AE33
Copy OK

No errors occurred

End of status report[/spoiler]
ed2k: Desireless.-.Franqois.Jap.ed.covers.ape.by.rat.Lossless-muz.ucoz.com.rar  [302.11 Mb]

Avatar do Utilizador
tueunos
Utilizador
Utilizador
Mensagens: 7585
Registado: 17 mai 2008, 21:31
Localização: Algures Planeta Terra

Re: Desireless - Francois [Japan] (1988) [APE]

Mensagem por tueunos » 22 mai 2010, 09:05

:thanxu6:
Imagem

"A vida é uma pedra de amolar: desgasta-nos ou afia-nos, conforme o metal de que somos feitos."

"Eu sou responsável pelo que digo, não pelo que as pessoas entendem."

Responder

Voltar para “Álbuns Lossless // Lossless Complete Albums”