Huey Lewis and the News - Plan B (2001) *Rat24*

Formatos Lossless // File formats (FLAC, WAV, MLP, APE, TTA, ALS, etc.)

Moderador: Moderador

Responder
rat24

Huey Lewis and the News - Plan B (2001) *Rat24*

Mensagem por rat24 » 18 mai 2010, 17:59

Imagem

Released May 1, 2001
Genre Rock
Length 48:16
Label Silvertone Records, distributed by Zomba/Jive
Producer Huey Lewis
Johnny Colla
Quality EAC-APE


[spoiler]
Plan B is the eighth album by American rock band Huey Lewis and the News, released in 2001 (see 2001 in music).

This was the last album to feature founding member/guitarist Chris Hayes, who performed on the album but then left after work was completed. He was replaced by Oakland-born guitarist Stef Burns (Alice Cooper, Vasco Rossi, Pablo Cruise, Y&T).
[/spoiler]

01. We're Not Here For A Long Time (We're Here For A Good Time) [0:03:53.50]
02. My Other Woman [0:04:06.00]
03. I Ain't Perfect [0:04:33.12]
04. When I Write The Book [0:03:44.63]
05. I'm Not In Love Yet [0:04:28.00]
06. Thank You #19 [0:04:52.47]
07. Plan B [0:03:27.40]
08. The Rhythm Ranch [0:04:49.38]
09. Let Her Go And Start Over [0:04:47.12]
10. I Never Think About You [0:05:15.55]
11. So Little Kindness [0:04:22.03]

[spoiler]Exact Audio Copy V0.99 prebeta 4 from 23. January 2008

EAC extraction logfile from 16. May 2010, 17:05

Huey Lewis & The News / Plan B

Used drive : TSSTcorpCD/DVDW SH-W162L Adapter: 3 ID: 1

Read mode : Secure
Utilize accurate stream : Yes
Defeat audio cache : Yes
Make use of C2 pointers : No

Read offset correction : 6
Overread into Lead-In and Lead-Out : No
Fill up missing offset samples with silence : Yes
Delete leading and trailing silent blocks : No
Null samples used in CRC calculations : Yes
Used interface : Installed external ASPI interface

Used output format : Internal WAV Routines
Sample format : 44.100 Hz; 16 Bit; Stereo

TOC of the extracted CD

Track | Start | Length | Start sector | End sector
---------------------------------------------------------
1 | 0:00.00 | 3:53.50 | 0 | 17524
2 | 3:53.50 | 4:06.00 | 17525 | 35974
3 | 7:59.50 | 4:33.12 | 35975 | 56461
4 | 12:32.62 | 3:44.63 | 56462 | 73324
5 | 16:17.50 | 4:28.00 | 73325 | 93424
6 | 20:45.50 | 4:52.47 | 93425 | 115371
7 | 25:38.22 | 3:27.40 | 115372 | 130936
8 | 29:05.62 | 4:49.38 | 130937 | 152649
9 | 33:55.25 | 4:47.12 | 152650 | 174186
10 | 38:42.37 | 5:15.55 | 174187 | 197866
11 | 43:58.17 | 4:22.03 | 197867 | 217519

Range status and errors

Selected range

Filename C:\Documents and Settings\Мои документы\Huey.Lewis.&.The.News.-.Plan.B.ape.by.rat.Lossless-muz.ucoz.com\Huey.Lewis.&.The.News.-.Plan.B.ape.by.rat.Lossless-muz.ucoz.wav

Peak level 98.8 %
Range quality 99.9 %
Copy CRC DC35FB06
Copy OK

No errors occurred

End of status report[/spoiler]

ed2k: Huey.Lewis.&.The.News.-.Plan.B.ape.by.rat.Lossless-muz.ucoz.com.rar  [340.53 Mb]

Responder

Voltar para “Álbuns Lossless // Lossless Complete Albums”