Joanna - Alma, Coração e Vida (1993) [FLAC] *UpPTMSNM*

Formatos Lossless // File formats (FLAC, WAV, MLP, APE, TTA, ALS, etc.)

Moderador: Moderador

Responder
Avatar do Utilizador
Barefaced
Administrador
Administrador
Mensagens: 37956
Registado: 06 jul 2007, 17:43
Localização: @ Home
Contacto:

Joanna - Alma, Coração e Vida (1993) [FLAC] *UpPTMSNM*

Mensagem por Barefaced » 11 abr 2010, 22:52




Imagem

Imagem
Imagem

Código: Selecionar todos

Exact Audio Copy V0.99 prebeta 5 from 4. May 2009

EAC extraction logfile from 24. February 2010, 23:27

Joanna / Alma, Coração e Vida

Used drive  : ATAPI   DVD A  DH16A1L   Adapter: 0  ID: 1

Read mode               : Secure
Utilize accurate stream : Yes
Defeat audio cache      : Yes
Make use of C2 pointers : No

Read offset correction                      : 6
Overread into Lead-In and Lead-Out          : No
Fill up missing offset samples with silence : Yes
Delete leading and trailing silent blocks   : No
Null samples used in CRC calculations       : No
Used interface                              : Native Win32 interface for Win NT & 2000
Gap handling                                : Not detected, thus appended to previous track

Used output format              : User Defined Encoder
Selected bitrate                : 896 kBit/s
Quality                         : High
Add ID3 tag                     : No
Command line compressor         : C:\Program Files\Exact Audio Copy\FLAC\FLAC.EXE
Additional command line options : -6 -V -T "ARTIST=%a" -T "TITLE=%t" -T "ALBUM=%g" -T "DATE=%y" -T "TRACKNUMBER=%n" -T "GENRE=%m" -T "COMMENT=%e" %s -o %d


TOC of the extracted CD

     Track |   Start  |  Length  | Start sector | End sector
    ---------------------------------------------------------
        1  |  0:00.32 |  3:57.43 |        32    |    17849   
        2  |  3:58.00 |  4:45.72 |     17850    |    39296   
        3  |  8:43.72 |  4:35.65 |     39297    |    59986   
        4  | 13:19.62 |  4:02.63 |     59987    |    78199   
        5  | 17:22.50 |  4:14.10 |     78200    |    97259   
        6  | 21:36.60 |  4:36.00 |     97260    |   117959   
        7  | 26:12.60 |  4:29.20 |    117960    |   138154   
        8  | 30:42.05 |  5:42.70 |    138155    |   163874   
        9  | 36:25.00 |  4:36.25 |    163875    |   184599   
       10  | 41:01.25 |  3:16.55 |    184600    |   199354   
       11  | 44:18.05 |  4:59.35 |    199355    |   221814   
       12  | 49:17.40 |  4:02.60 |    221815    |   240024   
       13  | 53:20.25 |  5:18.57 |    240025    |   263931   
       14  | 58:39.07 |  4:38.45 |    263932    |   284826   


Track  1

     Filename C:\Users\Sarinha\FTP\== FLAC ==\01 Joanna - Vida Virou Paixao (Alma, Coração e Vida).wav

     Peak level 93.9 %
     Track quality 100.0 %
     Copy CRC 2275392D
     Track not present in AccurateRip database
     Copy OK

Track  2

     Filename C:\Users\Sarinha\FTP\== FLAC ==\02 Joanna - Que Pena (Alma, Coração e Vida).wav

     Peak level 100.0 %
     Track quality 100.0 %
     Copy CRC BB36DDBE
     Track not present in AccurateRip database
     Copy OK

Track  3

     Filename C:\Users\Sarinha\FTP\== FLAC ==\03 Joanna - Esse Moco (Alma, Coração e Vida).wav

     Peak level 85.1 %
     Track quality 100.0 %
     Copy CRC F3C42AA5
     Track not present in AccurateRip database
     Copy OK

Track  4

     Filename C:\Users\Sarinha\FTP\== FLAC ==\04 Joanna - Voce Primeiro (Alma, Coração e Vida).wav

     Peak level 92.9 %
     Track quality 100.0 %
     Copy CRC C628690E
     Track not present in AccurateRip database
     Copy OK

Track  5

     Filename C:\Users\Sarinha\FTP\== FLAC ==\05 Joanna - Alma, Coracao e Vida (Alma, Coração e Vida).wav

     Peak level 100.0 %
     Track quality 100.0 %
     Copy CRC D50AB60E
     Track not present in AccurateRip database
     Copy OK

Track  6

     Filename C:\Users\Sarinha\FTP\== FLAC ==\06 Joanna - Apesar Dos Pesares (Alma, Coração e Vida).wav

     Peak level 100.0 %
     Track quality 100.0 %
     Copy CRC FC188AB8
     Track not present in AccurateRip database
     Copy OK

Track  7

     Filename C:\Users\Sarinha\FTP\== FLAC ==\07 Joanna - Logo Agora (Alma, Coração e Vida).wav

     Peak level 99.6 %
     Track quality 100.0 %
     Copy CRC 1E1DA8E3
     Track not present in AccurateRip database
     Copy OK

Track  8

     Filename C:\Users\Sarinha\FTP\== FLAC ==\08 Joanna - Nosso Orgulho (Alma, Coração e Vida).wav

     Peak level 100.0 %
     Track quality 100.0 %
     Copy CRC 4F825A02
     Track not present in AccurateRip database
     Copy OK

Track  9

     Filename C:\Users\Sarinha\FTP\== FLAC ==\09 Joanna - Nao Tem Jeito (Alma, Coração e Vida).wav

     Peak level 100.0 %
     Track quality 100.0 %
     Copy CRC 4C06A095
     Track not present in AccurateRip database
     Copy OK

Track 10

     Filename C:\Users\Sarinha\FTP\== FLAC ==\10 Joanna - Meu Coracao Cigano (Alma, Coração e Vida).wav

     Peak level 87.7 %
     Track quality 100.0 %
     Copy CRC 5FEE2DC0
     Track not present in AccurateRip database
     Copy OK

Track 11

     Filename C:\Users\Sarinha\FTP\== FLAC ==\11 Joanna - Tuas Digitais (Alma, Coração e Vida).wav

     Peak level 99.4 %
     Track quality 100.0 %
     Copy CRC 050F9D1D
     Track not present in AccurateRip database
     Copy OK

Track 12

     Filename C:\Users\Sarinha\FTP\== FLAC ==\12 Joanna - Eternas Ligacoes (Alma, Coração e Vida).wav

     Peak level 100.0 %
     Track quality 100.0 %
     Copy CRC F49D7F58
     Track not present in AccurateRip database
     Copy OK

Track 13

     Filename C:\Users\Sarinha\FTP\== FLAC ==\13 Joanna - Agua e Vinho (Alma, Coração e Vida).wav

     Peak level 100.0 %
     Track quality 99.9 %
     Copy CRC ABCA9D00
     Track not present in AccurateRip database
     Copy OK

Track 14

     Filename C:\Users\Sarinha\FTP\== FLAC ==\14 Joanna - Fruto Proibido (Alma, Coração e Vida).wav

     Peak level 91.9 %
     Track quality 99.9 %
     Copy CRC 0E15AB7F
     Track not present in AccurateRip database
     Copy OK


None of the tracks are present in the AccurateRip database

No errors occurred

End of status report



Lançamento eD2K The Rostrum


Imagem
Imagem

ed2k: Joanna-Alma.Coracao.Vida.(1993).[FLAC].UpPTMSNM.[TheRostrum.net].rar  [417.52 Mb]
Imagem
Imagem

parashoot

Re: Joanna - Alma, Coração e Vida (1993) [FLAC] *UpPTMSNM*

Mensagem por parashoot » 15 set 2010, 00:34

Excelente post
Obrigado
Abraço :bravo:

Responder

Voltar para “Álbuns Lossless // Lossless Complete Albums”