Ritual Tejo - 3 Vidas (1999) [FLAC] *UpPTMSNM*

Formatos Lossless // File formats (FLAC, WAV, MLP, APE, TTA, ALS, etc.)

Moderador: Moderador

Responder
Avatar do Utilizador
Barefaced
Administrador
Administrador
Mensagens: 37252
Registado: 06 jul 2007, 17:43
Localização: @ Home
Contacto:

Ritual Tejo - 3 Vidas (1999) [FLAC] *UpPTMSNM*

Mensagem por Barefaced » 07 abr 2010, 18:49




Imagem

Imagem

Imagem
Imagem

Código: Selecionar todos

Exact Audio Copy V0.99 prebeta 5 from 4. May 2009

EAC extraction logfile from 28. March 2010, 13:28

Ritual Tejo / Três Vidas

Used drive  : ATAPI   DVD A  DH16A1L   Adapter: 0  ID: 1

Read mode               : Secure
Utilize accurate stream : Yes
Defeat audio cache      : Yes
Make use of C2 pointers : No

Read offset correction                      : 6
Overread into Lead-In and Lead-Out          : No
Fill up missing offset samples with silence : Yes
Delete leading and trailing silent blocks   : No
Null samples used in CRC calculations       : No
Used interface                              : Native Win32 interface for Win NT & 2000
Gap handling                                : Not detected, thus appended to previous track

Used output format              : User Defined Encoder
Selected bitrate                : 896 kBit/s
Quality                         : High
Add ID3 tag                     : No
Command line compressor         : C:\Program Files\Exact Audio Copy\FLAC\FLAC.EXE
Additional command line options : -6 -V -T "ARTIST=%a" -T "TITLE=%t" -T "ALBUM=%g" -T "DATE=%y" -T "TRACKNUMBER=%n" -T "GENRE=%m" -T "COMMENT=%e" %s -o %d


TOC of the extracted CD

     Track |   Start  |  Length  | Start sector | End sector
    ---------------------------------------------------------
        1  |  0:00.00 |  4:46.45 |         0    |    21494   
        2  |  4:46.45 |  4:17.25 |     21495    |    40794   
        3  |  9:03.70 |  4:31.72 |     40795    |    61191   
        4  | 13:35.67 |  4:36.66 |     61192    |    81957   
        5  | 18:12.58 |  3:53.30 |     81958    |    99462   
        6  | 22:06.13 |  4:40.65 |     99463    |   120527   
        7  | 26:47.03 |  3:35.01 |    120528    |   136653   
        8  | 30:22.04 |  4:30.41 |    136654    |   156944   
        9  | 34:52.45 |  4:10.33 |    156945    |   175727   
       10  | 39:03.03 |  3:56.21 |    175728    |   193448   
       11  | 42:59.24 |  3:04.69 |    193449    |   207317   
       12  | 46:04.18 |  7:48.09 |    207318    |   242426   


Track  1

     Filename C:\Users\Sarinha\FTP\== FLAC ==\01 Ritual Tejo - Três Vidas (Três Vidas).wav

     Peak level 98.8 %
     Track quality 100.0 %
     Copy CRC FA900C92
     Track not present in AccurateRip database
     Copy OK

Track  2

     Filename C:\Users\Sarinha\FTP\== FLAC ==\02 Ritual Tejo - O Mapa do teu Corpo (Três Vidas).wav

     Peak level 98.8 %
     Track quality 99.9 %
     Copy CRC 84D69DF3
     Track not present in AccurateRip database
     Copy OK

Track  3

     Filename C:\Users\Sarinha\FTP\== FLAC ==\03 Ritual Tejo - Fundo azul (Três Vidas).wav

     Peak level 98.8 %
     Track quality 99.9 %
     Copy CRC CB2D1CD7
     Track not present in AccurateRip database
     Copy OK

Track  4

     Filename C:\Users\Sarinha\FTP\== FLAC ==\04 Ritual Tejo - Só palavras (Três Vidas).wav

     Peak level 98.8 %
     Track quality 100.0 %
     Copy CRC 083C4DB8
     Track not present in AccurateRip database
     Copy OK

Track  5

     Filename C:\Users\Sarinha\FTP\== FLAC ==\05 Ritual Tejo - Desta vez (Três Vidas).wav

     Peak level 98.8 %
     Track quality 100.0 %
     Copy CRC 6DDEE9AC
     Track not present in AccurateRip database
     Copy OK

Track  6

     Filename C:\Users\Sarinha\FTP\== FLAC ==\06 Ritual Tejo - Não sigo ninguém (Três Vidas).wav

     Peak level 98.8 %
     Track quality 100.0 %
     Copy CRC 1E2C67F3
     Track not present in AccurateRip database
     Copy OK

Track  7

     Filename C:\Users\Sarinha\FTP\== FLAC ==\07 Ritual Tejo - Freio nos dentes (Três Vidas).wav

     Peak level 91.6 %
     Track quality 100.0 %
     Copy CRC 35EEA99A
     Track not present in AccurateRip database
     Copy OK

Track  8

     Filename C:\Users\Sarinha\FTP\== FLAC ==\08 Ritual Tejo - O elixir da paixão (Três Vidas).wav

     Peak level 98.8 %
     Track quality 100.0 %
     Copy CRC 4799F38A
     Track not present in AccurateRip database
     Copy OK

Track  9

     Filename C:\Users\Sarinha\FTP\== FLAC ==\09 Ritual Tejo - Cruz (Três Vidas).wav

     Peak level 98.8 %
     Track quality 100.0 %
     Copy CRC 4F5CBBE4
     Track not present in AccurateRip database
     Copy OK

Track 10

     Filename C:\Users\Sarinha\FTP\== FLAC ==\10 Ritual Tejo - Só tu (Três Vidas).wav

     Peak level 98.8 %
     Track quality 100.0 %
     Copy CRC E4A3245F
     Track not present in AccurateRip database
     Copy OK

Track 11

     Filename C:\Users\Sarinha\FTP\== FLAC ==\11 Ritual Tejo - Anti Amor (Três Vidas).wav

     Peak level 98.8 %
     Track quality 100.0 %
     Copy CRC 3B8F16BC
     Track not present in AccurateRip database
     Copy OK

Track 12

     Filename C:\Users\Sarinha\FTP\== FLAC ==\12 Ritual Tejo - Outro Dia (Três Vidas).wav

     Peak level 98.8 %
     Track quality 100.0 %
     Copy CRC 21AA5891
     Track not present in AccurateRip database
     Copy OK


None of the tracks are present in the AccurateRip database

No errors occurred

End of status report

:.. Notes ..:
Respeite os lançamentos originais, não faça reencodes, partilhe e divirta-se!
Obrigado por ajudar  na partilha.

Respect the original entries, do not reencode, share and enjoy!
Thanks for your help in sharing

[www.TheRostrum.net]



Lançamento eD2K The Rostrum


Imagem
Imagem

ed2k: Ritual.Tejo-3.Vidas.(1999).[FLAC].UpPTMSNM-[TheRostrum.net].rar  [367.71 Mb]
Imagem
Imagem

zeka775
Utilizador
Utilizador
Mensagens: 2
Registado: 08 dez 2018, 22:59

Re: Ritual Tejo - 3 Vidas (1999) [FLAC] *UpPTMSNM*

Mensagem por zeka775 » 08 dez 2018, 23:05

muchas gracias

zeka775
Utilizador
Utilizador
Mensagens: 2
Registado: 08 dez 2018, 22:59

Re: Ritual Tejo - 3 Vidas (1999) [FLAC] *UpPTMSNM*

Mensagem por zeka775 » 08 dez 2018, 23:13

Obrigado :banahappy:

Responder

Voltar para “Álbuns Lossless // Lossless Complete Albums”