Tony Carreira - Vagabundo Por Amor (2004) [FLAC] *UpPTMSNM*

Formatos Lossless // File formats (FLAC, WAV, MLP, APE, TTA, ALS, etc.)

Moderador: Moderador

Responder
Avatar do Utilizador
Barefaced
Administrador
Administrador
Mensagens: 37012
Registado: 06 jul 2007, 17:43
Localização: @ Home
Contacto:

Tony Carreira - Vagabundo Por Amor (2004) [FLAC] *UpPTMSNM*

Mensagem por Barefaced » 29 mar 2010, 16:31




Imagem

Imagem
Imagem


Código: Selecionar todos

Exact Audio Copy V0.99 prebeta 5 from 4. May 2009

EAC extraction logfile from 26. March 2010, 12:28

Tony Carreira / vagabundo por amor

Used drive  : ATAPI   DVD A  DH16A1L   Adapter: 0  ID: 1

Read mode               : Secure
Utilize accurate stream : Yes
Defeat audio cache      : Yes
Make use of C2 pointers : No

Read offset correction                      : 6
Overread into Lead-In and Lead-Out          : No
Fill up missing offset samples with silence : Yes
Delete leading and trailing silent blocks   : No
Null samples used in CRC calculations       : No
Used interface                              : Native Win32 interface for Win NT & 2000
Gap handling                                : Not detected, thus appended to previous track

Used output format              : User Defined Encoder
Selected bitrate                : 896 kBit/s
Quality                         : High
Add ID3 tag                     : No
Command line compressor         : C:\Program Files\Exact Audio Copy\FLAC\FLAC.EXE
Additional command line options : -6 -V -T "ARTIST=%a" -T "TITLE=%t" -T "ALBUM=%g" -T "DATE=%y" -T "TRACKNUMBER=%n" -T "GENRE=%m" -T "COMMENT=%e" %s -o %d


TOC of the extracted CD

     Track |   Start  |  Length  | Start sector | End sector
    ---------------------------------------------------------
        1  |  0:00.00 |  4:20.45 |         0    |    19544   
        2  |  4:20.45 |  3:37.49 |     19545    |    35868   
        3  |  7:58.19 |  4:09.73 |     35869    |    54616   
        4  | 12:08.17 |  4:22.27 |     54617    |    74293   
        5  | 16:30.44 |  4:05.44 |     74294    |    92712   
        6  | 20:36.13 |  4:37.37 |     92713    |   113524   
        7  | 25:13.50 |  3:34.12 |    113525    |   129586   
        8  | 28:47.62 |  4:16.07 |    129587    |   148793   
        9  | 33:03.69 |  3:46.51 |    148794    |   165794   
       10  | 36:50.45 |  5:31.42 |    165795    |   190661   
       11  | 42:22.12 |  4:58.48 |    190662    |   213059   
       12  | 47:20.60 |  5:00.53 |    213060    |   235612   
       13  | 52:21.38 |  4:10.07 |    235613    |   254369   
       14  | 56:31.45 |  3:42.17 |    254370    |   271036   
       15  | 60:13.62 |  4:57.30 |    271037    |   293341   


Track  1

     Filename C:\Users\Sarinha\FTP\== FLAC ==\01 Tony Carreira - Sabes onde eu estou (vagabundo por amor).wav

     Peak level 81.2 %
     Track quality 100.0 %
     Copy CRC 89ECDAFD
     Track not present in AccurateRip database
     Copy OK

Track  2

     Filename C:\Users\Sarinha\FTP\== FLAC ==\02 Tony Carreira - Mais uma noite (antes do fim) (vagabundo por amor).wav

     Peak level 98.6 %
     Track quality 100.0 %
     Copy CRC 97865B7C
     Track not present in AccurateRip database
     Copy OK

Track  3

     Filename C:\Users\Sarinha\FTP\== FLAC ==\03 Tony Carreira - Vagabundo por amor (vagabundo por amor).wav

     Peak level 87.3 %
     Track quality 100.0 %
     Copy CRC 26BBCA0F
     Track not present in AccurateRip database
     Copy OK

Track  4

     Filename C:\Users\Sarinha\FTP\== FLAC ==\04 Tony Carreira - Viver sem ti, não é viver (vagabundo por amor).wav

     Peak level 74.6 %
     Track quality 100.0 %
     Copy CRC B882E3A9
     Track not present in AccurateRip database
     Copy OK

Track  5

     Filename C:\Users\Sarinha\FTP\== FLAC ==\05 Tony Carreira - Se eu soubesse que me querias (vagabundo por amor).wav

     Peak level 81.6 %
     Track quality 100.0 %
     Copy CRC A389B8FF
     Track not present in AccurateRip database
     Copy OK

Track  6

     Filename C:\Users\Sarinha\FTP\== FLAC ==\06 Tony Carreira - Esta falta de ti (vagabundo por amor).wav

     Peak level 89.7 %
     Track quality 100.0 %
     Copy CRC 3FF934EF
     Track not present in AccurateRip database
     Copy OK

Track  7

     Filename C:\Users\Sarinha\FTP\== FLAC ==\07 Tony Carreira - O que eu gosto numa mulher (vagabundo por amor).wav

     Peak level 69.5 %
     Track quality 99.9 %
     Copy CRC 9F359209
     Track not present in AccurateRip database
     Copy OK

Track  8

     Filename C:\Users\Sarinha\FTP\== FLAC ==\08 Tony Carreira - Quem será (Che Sara) (vagabundo por amor).wav

     Peak level 85.7 %
     Track quality 100.0 %
     Copy CRC 373266C2
     Track not present in AccurateRip database
     Copy OK

Track  9

     Filename C:\Users\Sarinha\FTP\== FLAC ==\09 Tony Carreira - Foi amor, foi amor (vagabundo por amor).wav

     Peak level 75.7 %
     Track quality 100.0 %
     Copy CRC 0186B14B
     Track not present in AccurateRip database
     Copy OK

Track 10

     Filename C:\Users\Sarinha\FTP\== FLAC ==\10 Tony Carreira - Quando chega a solidão (vagabundo por amor).wav

     Peak level 74.6 %
     Track quality 100.0 %
     Copy CRC 9055CE1E
     Track not present in AccurateRip database
     Copy OK

Track 11

     Filename C:\Users\Sarinha\FTP\== FLAC ==\11 Tony Carreira - Só com ela e mais ninguém (vagabundo por amor).wav

     Peak level 89.1 %
     Track quality 100.0 %
     Copy CRC 4DBF3783
     Track not present in AccurateRip database
     Copy OK

Track 12

     Filename C:\Users\Sarinha\FTP\== FLAC ==\12 Tony Carreira - Nunca vou esquecer (a terra onde nasci) (vagabundo por amor).wav

     Peak level 79.0 %
     Track quality 99.9 %
     Copy CRC 812EF52C
     Track not present in AccurateRip database
     Copy OK

Track 13

     Filename C:\Users\Sarinha\FTP\== FLAC ==\13 Tony Carreira - Filho e Pai (vagabundo por amor).wav

     Peak level 100.0 %
     Track quality 100.0 %
     Copy CRC 81FBAA60
     Track not present in AccurateRip database
     Copy OK

Track 14

     Filename C:\Users\Sarinha\FTP\== FLAC ==\14 Tony Carreira - Elle & moi (vagabundo por amor).wav

     Peak level 76.7 %
     Track quality 100.0 %
     Copy CRC A42A981D
     Track not present in AccurateRip database
     Copy OK

Track 15

     Filename C:\Users\Sarinha\FTP\== FLAC ==\15 Tony Carreira - Il faudrait jamais que le temps passe (vagabundo por amor).wav

     Peak level 99.4 %
     Track quality 100.0 %
     Copy CRC 8381FD84
     Track not present in AccurateRip database
     Copy OK


None of the tracks are present in the AccurateRip database

No errors occurred

End of status report



Lançamento eD2K The Rostrum


Imagem
Imagem

ed2k: Tony.Carreira.Vagabundo.Por.Amor.(2004).[FLAC].UpPTMSNM-[TheRostrum.net].rar  [433.59 Mb]
Imagem
Imagem

zootool
Utilizador
Utilizador
Mensagens: 1
Registado: 24 jun 2017, 18:02

Re: Tony Carreira - Vagabundo Por Amor (2004) [FLAC] *UpPTMSNM*

Mensagem por zootool » 24 jun 2017, 19:01

muchas gracias por el aporte

Responder

Voltar para “Álbuns Lossless // Lossless Complete Albums”