Mão Morta - O.D., Rainha do Rock & Crawl (1991) [FLAC]

Formatos Lossless // File formats (FLAC, WAV, MLP, APE, TTA, ALS, etc.)

Moderador: Moderador

Responder
Diago

Mão Morta - O.D., Rainha do Rock & Crawl (1991) [FLAC]

Mensagem por Diago » 27 mar 2010, 00:27

Imagem


Facebook - Wikipedia

O bófia empurrava-me e dizia para desandar. Eu não podia compreender porquê. Quis-lhe perguntar. O bófia sacou do cassetête e deu-me com ele uma, duas, três vezes nos costados. Senti um choque eléctrico percorrer-me o corpo. E uma humilhação que não podia ficar impune. »

in "Bófia"

O.D., Rainha do Rock & Crawl - Terceiro álbum, editado em formato LP, em Junho de 1991, pela Área Total.
O reportório de "O.D." reflecte sobretudo os pulsantes e arrebatados Mão Morta dos anos 80, na aparência mais viscerais do que intelectuais, cultores de Sade e de Lautréamont em concertos de ambiente explosivo, mas conscientes de terem chegado ao termo de um caminho e à exigência de uma necessária regeneração. Após a edição, foram abordados por uma editora multinacional, que lhes propôs o abandono das suas profissões na "vida real" para se dedicarem à musica a tempo inteiro. Recusaram!
Reeditado em CD, em Dezembro de 1998, pela NorteSul (Valentim de Carvalho), com os temas bónus "1º de Novembro *" (da colectânea "À Sombra de Deus - Braga 88") e "Rotte (A Morte é um Acto Solitário) *" (da colectânea "À Sombra de Deus - Volume 2") e, mais recentemente, pela Cobra, em Dezembro de 2009. Nesta última reedição foi incluído na caixa "Mão Morta 1988-1992", caixa esta que é composta pelos quatro primeiros discos dos Mão Morta e que é comemorativa dos 25 anos da banda de Braga.[/b][/size]


Dados do Rip
Artista: Mão Morta
Álbum: O.D., Rainha do Rock & Crawl
Ano: 1991
Género: Rock
Formato: FLAC
Cover: Incluída no .rar


Tracklist
01 - Bófia
02 - Anarquista Duval
03 - Charles Manson
04 -Quero Morder-te As Mãos
05 - O Divino Marquês
06 - 1º de novembro *
07 - Rotte (A Morte é um Acto Solitário) *


phpBB [video]


[spoiler]Exact Audio Copy V0.99 prebeta 5 from 4. May 2009

EAC extraction logfile from 26. March 2010, 13:07

Mão Morta / O. D., Rainha Do Rock & Crawl

Used drive : HL-DT-STDVDRAM GSA-4167B Adapter: 1 ID: 0

Read mode : Secure
Utilize accurate stream : Yes
Defeat audio cache : Yes
Make use of C2 pointers : No

Read offset correction : 667
Overread into Lead-In and Lead-Out : No
Fill up missing offset samples with silence : Yes
Delete leading and trailing silent blocks : No
Null samples used in CRC calculations : Yes
Used interface : Installed external ASPI interface
Gap handling : Appended to previous track

Used output format : User Defined Encoder
Selected bitrate : 768 kBit/s
Quality : High
Add ID3 tag : No
Command line compressor : C:\Program Files\Exact Audio Copy\FLAC\FLAC.EXE
Additional command line options : -8 -V -T "ARTIST=%a" -T "TITLE=%t" -T "ALBUM=%g" -T "DATE=%y" -T "TRACKNUMBER=%n" -T "GENRE=%m" -T "COMMENT=%e" %s -o %d


TOC of the extracted CD

Track | Start | Length | Start sector | End sector
---------------------------------------------------------
1 | 0:00.00 | 5:54.03 | 0 | 26552
2 | 5:54.03 | 7:24.65 | 26553 | 59917
3 | 13:18.68 | 4:23.39 | 59918 | 79681
4 | 17:42.32 | 2:37.41 | 79682 | 91497
5 | 20:19.73 | 10:13.51 | 91498 | 137523
6 | 30:33.49 | 4:35.06 | 137524 | 158154
7 | 35:08.55 | 3:35.57 | 158155 | 174336


Track 1

Filename C:\EACrips\Mão Morta - 1991 - O. D., Rainha Do Rock & Crawl [FLAC]\01 - Bófia.wav

Pre-gap length 0:00:02.00

Peak level 100.0 %
Track quality 100.0 %
Test CRC AD7A4BF1
Copy CRC AD7A4BF1
Accurately ripped (confidence 1) [F40FD768]
Copy OK

Track 2

Filename C:\EACrips\Mão Morta - 1991 - O. D., Rainha Do Rock & Crawl [FLAC]\02 - Anarquista Duval.wav

Pre-gap length 0:00:39.70

Peak level 100.0 %
Track quality 100.0 %
Test CRC 84427010
Copy CRC 84427010
Accurately ripped (confidence 1) [2C64EE7A]
Copy OK

Track 3

Filename C:\EACrips\Mão Morta - 1991 - O. D., Rainha Do Rock & Crawl [FLAC]\03 - Charles Manson.wav

Pre-gap length 0:00:36.65

Peak level 100.0 %
Track quality 100.0 %
Test CRC 54E9F2C7
Copy CRC 54E9F2C7
Accurately ripped (confidence 1) [2E25175F]
Copy OK

Track 4

Filename C:\EACrips\Mão Morta - 1991 - O. D., Rainha Do Rock & Crawl [FLAC]\04 - Quero morder-te as mãos.wav

Pre-gap length 0:00:44.25

Peak level 100.0 %
Track quality 100.0 %
Test CRC 57F4FEAC
Copy CRC 57F4FEAC
Accurately ripped (confidence 1) [3C8CD98B]
Copy OK

Track 5

Filename C:\EACrips\Mão Morta - 1991 - O. D., Rainha Do Rock & Crawl [FLAC]\05 - O divino marquês.wav

Peak level 100.0 %
Track quality 100.0 %
Test CRC 22E7C88D
Copy CRC 22E7C88D
Accurately ripped (confidence 1) [9E711EAC]
Copy OK

Track 6

Filename C:\EACrips\Mão Morta - 1991 - O. D., Rainha Do Rock & Crawl [FLAC]\06 - 1º de novembro.wav

Pre-gap length 0:00:01.45

Peak level 100.0 %
Track quality 100.0 %
Test CRC EEF983F3
Copy CRC EEF983F3
Accurately ripped (confidence 1) [9B72633C]
Copy OK

Track 7

Filename C:\EACrips\Mão Morta - 1991 - O. D., Rainha Do Rock & Crawl [FLAC]\07 - Rotte (a morte é um acto solitário).wav

Pre-gap length 0:00:01.45

Peak level 92.4 %
Track quality 100.0 %
Test CRC 94BA2AFA
Copy CRC 94BA2AFA
Accurately ripped (confidence 1) [33C6E533]
Copy OK


All tracks accurately ripped

No errors occurred

End of status report[/spoiler]

ed2k: Mão Morta - 1991 - O. D., Rainha Do Rock & Crawl [FLAC].rar  [257.59 Mb]

Diago

Re: Mão Morta - O.D., Rainha do Rock & Crawl (1991) [FLAC]

Mensagem por Diago » 27 mar 2010, 18:58

Mesmo agora reparei que este post veio parar aos cuidados intensivos :icon_surprised:
Só posso pensar que a causa seja a menção *Sh@re4U* no título do Tópico :icon_rolleyes:
Se for isso farei a necessária correcção :icon_e_wink: É possível me confirmarem se é essa a causa?

Obrigado e peço desculpa :smile_worship:

Avatar do Utilizador
Barefaced
Administrador
Administrador
Mensagens: 36156
Registado: 06 jul 2007, 17:43
Localização: @ Home
Contacto:

Re: Mão Morta - O.D., Rainha do Rock & Crawl (1991) [FLAC]

Mensagem por Barefaced » 27 mar 2010, 19:36

:loldbz_2:

Acontece... :shot:
Imagem

Smurf
Utilizador
Utilizador
Mensagens: 11
Registado: 17 out 2014, 00:02

Re: Mão Morta - O.D., Rainha do Rock & Crawl (1991) [FLAC]

Mensagem por Smurf » 17 out 2014, 00:07

Boa partilha. Seria possivel alguém semear este album novamente sff. Obrigado desde já

Estrumphe
Utilizador
Utilizador
Mensagens: 9
Registado: 21 set 2016, 02:39

Re: Mão Morta - O.D., Rainha do Rock & Crawl (1991) [FLAC]

Mensagem por Estrumphe » 03 out 2016, 11:58

Alguém ainda tem este rip em lossless e não se importa de voltar a partilhar o álbum?
Desde já agradeço.

Avatar do Utilizador
Barefaced
Administrador
Administrador
Mensagens: 36156
Registado: 06 jul 2007, 17:43
Localização: @ Home
Contacto:

Re: Mão Morta - O.D., Rainha do Rock & Crawl (1991) [FLAC]

Mensagem por Barefaced » 03 out 2016, 12:35

Estrumphe Escreveu:Alguém ainda tem este rip em lossless e não se importa de voltar a partilhar o álbum?
Desde já agradeço.

Boas, tenho o álbum em arquivo e vou colocar em partilha novamente.
Imagem

Estrumphe
Utilizador
Utilizador
Mensagens: 9
Registado: 21 set 2016, 02:39

Re: Mão Morta - O.D., Rainha do Rock & Crawl (1991) [FLAC]

Mensagem por Estrumphe » 03 out 2016, 15:07

Ok. Ficarei a aguardar. Muito obrigado pela rápida resposta e disponibilidade em ajudar.

Responder

Voltar para “Álbuns Lossless // Lossless Complete Albums”