Deep Purple - Last Concert In Japan (rem.4.bonus) (1977/99)

Formatos Lossless // File formats (FLAC, WAV, MLP, APE, TTA, ALS, etc.)

Moderador: Moderador

Responder
rat24

Deep Purple - Last Concert In Japan (rem.4.bonus) (1977/99)

Mensagem por rat24 » 13 jun 2009, 15:08

Imagem

Artist: Deep Purple
Album: Last Concert In Japan
Released: 1999
Label: cd maximum
Genre: Hard rock
Format: EAC-LOG-APE-HQCovers

[spoiler]
Last Concert in Japan is an album by Deep Purple released in March 1977. It records the last Japanese concert of the Mark IV-lineup with Tommy Bolin. This album was recorded on 15 December 1975 at the Tokyo Budokan.

This performance set an attendance record for the Budokan Hall, about 14,000 attended. Parts of the concert was also shot on 16mm film that were included in the video Rises Over Japan released in Japan only in 1985.

The whole recording substantially edited to fit a single vinyl release. The whole concert was remastered and restored for This Time Around: Live in Tokyo released in 2001. Aside from including a large portion of the set left out at the time of the original release, the 2001 re-release was also meant to fully restore the sound quality of the show, which was compromised when a hurriedly mastered audio track meant for a potential video release was used to speed up the release.

Although the audience was unaware of it at the time of the show, new member Tommy Bolin had a severe drug addiction, that ultimately would prove to be fatal less than a year later.

The original packaging of this release incorrectly stated that the album included a live version of "Woman from Tokyo", when in fact all that was included was a short jam of its main riff performed during Jon Lord's solo. Purple fans were disgusted by the move, which was attributed to record company foul play in order to boost record sale
[/spoiler]

01. Burn [0:06:51.50]
02. Love Child [0:04:34.34]
03. You Keep On Moving [0:05:48.36]
04. Wild Dogs [0:05:56.64]
05. Lady Luck [0:03:06.60]
06. Smoke On The Water [0:06:21.71]
07. Soldier Of Fortune [0:02:22.00]
08. Woman From Tokyo [0:04:03.22]
09. Highway Star [0:06:11.72]
bonus:
10. Getting' Tigter [0:13:34.42]
11. This Time Around [0:07:01.21]
12. Stormbringer [0:10:31.26]
13. Georgia On My Mind [0:03:13.49]

[spoiler]

Código: Selecionar todos

Exact Audio Copy V0.99 prebeta 4 from 23. January 2008

EAC extraction logfile from 13. June 2009, 14:22

Deep Purple / Last Concert In Japan

Used drive  : Optiarc DVD RW AD-7170A   Adapter: 3  ID: 0

Read mode               : Secure
Utilize accurate stream : Yes
Defeat audio cache      : Yes
Make use of C2 pointers : No

Read offset correction                      : 48
Overread into Lead-In and Lead-Out          : No
Fill up missing offset samples with silence : Yes
Delete leading and trailing silent blocks   : No
Null samples used in CRC calculations       : Yes
Used interface                              : Installed external ASPI interface

Used output format : Internal WAV Routines
Sample format      : 44.100 Hz; 16 Bit; Stereo


TOC of the extracted CD

     Track |   Start  |  Length  | Start sector | End sector
    ---------------------------------------------------------
        1  |  0:00.00 |  6:51.50 |         0    |    30874   
        2  |  6:51.50 |  4:34.34 |     30875    |    51458   
        3  | 11:26.09 |  5:48.36 |     51459    |    77594   
        4  | 17:14.45 |  5:56.64 |     77595    |   104358   
        5  | 23:11.34 |  3:06.60 |    104359    |   118368   
        6  | 26:18.19 |  6:21.71 |    118369    |   147014   
        7  | 32:40.15 |  2:22.00 |    147015    |   157664   
        8  | 35:02.15 |  4:03.22 |    157665    |   175911   
        9  | 39:05.37 |  6:11.72 |    175912    |   203808   
       10  | 45:17.34 | 13:34.42 |    203809    |   264900   
       11  | 58:52.01 |  7:01.21 |    264901    |   296496   
       12  | 65:53.22 | 10:31.26 |    296497    |   343847   
       13  | 76:24.48 |  3:13.49 |    343848    |   358371   


Range status and errors

Selected range

     Filename C:\Documents and Settings\Мои документы\Deep Purple - Last Concert In Japan.rem.4.bonus.by.rat.eac.flac.covers.Israel-club.my1.ru\Deep Purple - Last Concert In Japan.rem.4.bonus.by.rat.eac.flac.covers.Israel-club.my1.ru.wav

     Peak level 99.2 %
     Range quality 99.9 %
     Copy CRC F70735B5
     Copy OK

No errors occurred

End of status report
[/spoiler]

ed2k: Deep.Purple.-.Last.Concert.In.Japan.rem.4.bonus.by.rat.eac.flac.covers.Israel-club.my1.ru.rar  [572.48 Mb]

Farroba
Utilizador
Utilizador
Mensagens: 1
Registado: 15 dez 2014, 15:46

Re: Deep Purple - Last Concert In Japan (rem.4.bonus)(1977/99)

Mensagem por Farroba » 03 jan 2015, 21:51

Uma das minhas bandas preferidas. Muito obrigado.

Responder

Voltar para “Álbuns Lossless // Lossless Complete Albums”